<?xml version="1.0" standalone="no"?>
<!DOCTYPE svg PUBLIC "-//W3C//DTD SVG 1.1//EN" "http://www.w3.org/Graphics/SVG/1.1/DTD/svg11.dtd" >
<svg xmlns="http://www.w3.org/2000/svg">
<metadata>
This is a custom SVG font generated by IcoMoon.
<iconset grid="16"></iconset>
</metadata>
<defs>
<font id="icomoon" horiz-adv-x="512" >
<font-face units-per-em="512" ascent="480" descent="-32" />
<missing-glyph horiz-adv-x="512" />
<glyph class="hidden" unicode="&#xf000;" d="M0,480L 512 -32L0 -32 z" horiz-adv-x="0" />
<glyph unicode="&#xe000;" d="M 33.592,417.083c 22.392,0, 44.785,0, 67.164,0c0-16.73,0-33.459,0-50.199
	c-22.382,0-44.774,0-67.164,0C 33.592,383.624, 33.592,400.353, 33.592,417.083L 33.592,417.083z M 119.752,379.858L 119.752,477.007 l-18.995,0 l0-25.981 L 33.592,451.026 
	L 33.592,477.007 L 12.8,477.007 L 12.8-29.005 l 20.792,0 l0,25.498 l 67.164,0 l0-25.498 l 18.995,0 l0,72.445 l 272.484,0 l0-72.445 l 20.79,0 l0,25.498 l 67.174,0 l0-25.498 L 499.2-29.005 L 499.2,477.007 l-18.998,0 l0-25.981 l-67.174,0 L 413.028,477.007 
	l-20.79,0 l0-97.147 L 119.752,379.86 L 119.752,379.858z M 413.028,379.858L 413.028,417.083 c 22.392,0, 44.774,0, 67.174,0c0-16.73,0-33.459,0-50.199
	c-22.4,0-44.782,0-67.174,0l0,0.791 l0,0.791 l0,0.778 l0,0.791 l0,0.781 l0,0.791 l0,0.791 l0,0.758 l0,0.791 l0,0.778 l0,0.791 l0,0.791 l0,0.791 l0,0.781 
	L 413.028,378.65 l0,0.791 L 413.028,379.858 L 413.028,379.858z M 392.238,332.984l0-242.657 L 119.752,90.327 L 119.752,332.984 L 392.238,332.984 L 392.238,332.984z M 413.028,332.984
	c 22.392,0, 44.774,0, 67.174,0c0-16.76,0-33.49,0-50.22c-22.4,0-44.782,0-67.174,0C 413.028,299.494, 413.028,316.224, 413.028,332.984
	L 413.028,332.984z M 413.028,248.842c 22.392,0, 44.774,0, 67.174,0c0-16.719,0-33.457,0-50.207c-22.4,0-44.782,0-67.174,0
	C 413.028,215.386, 413.028,232.123, 413.028,248.842L 413.028,248.842z M 413.028,164.733c 22.392,0, 44.774,0, 67.174,0
	c0-16.74,0-33.477,0-50.207c-22.4,0-44.782,0-67.174,0C 413.028,131.254, 413.028,147.994, 413.028,164.733L 413.028,164.733z
	 M 413.028,80.625c 22.392,0, 44.774,0, 67.174,0c0-16.74,0-33.49,0-50.22c-22.4,0-44.782,0-67.174,0l0,13.036 l0,0.297 l0,0.781 l0,0.791 l0,0.791 
	l0,0.791 l0,0.791 l0,0.781 l0,0.781 l0,0.791 l0,0.788 l0,0.76 l0,0.791 l0,0.781 l0,0.791 l0,0.791 l0,0.791 l0,0.778 l0,0.791 l0,0.781 l0,0.771 l0,0.781 l0,0.791 
	l0,0.791 l0,0.788 l0,0.781 l0,0.791 l0,0.781 l0,0.791 l0,0.781 l0,0.801 l0,0.781 l0,0.791 l0,0.778 l0,0.791 l0,0.781 l0,0.801 l0,0.781 l0,0.791 l0,0.781 l0,0.791 
	l0,0.758 l0,0.791 l0,0.781 l0,0.791 l0,0.791 l0,0.791 l0,0.781 L 413.028,80.625 L 413.028,80.625z M 33.592,332.984c 22.392,0, 44.785,0, 67.164,0
	c0-16.76,0-33.49,0-50.22c-22.382,0-44.774,0-67.164,0C 33.592,299.494, 33.592,316.224, 33.592,332.984L 33.592,332.984z M 33.592,248.842
	c 22.392,0, 44.785,0, 67.164,0c0-16.719,0-33.457,0-50.207c-22.382,0-44.774,0-67.164,0C 33.592,215.386, 33.592,232.123, 33.592,248.842
	L 33.592,248.842z M 33.592,164.733c 22.392,0, 44.785,0, 67.164,0c0-16.74,0-33.477,0-50.207c-22.382,0-44.774,0-67.164,0
	C 33.592,131.254, 33.592,147.994, 33.592,164.733L 33.592,164.733z M 33.592,80.625c 22.392,0, 44.785,0, 67.164,0
	c0-16.74,0-33.49,0-50.22c-22.382,0-44.774,0-67.164,0C 33.592,47.135, 33.592,63.885, 33.592,80.625z"  />
<glyph unicode="&#xe001;" d="M 491.884,438.441L 20.114,438.441 c-11.494,0-20.792-9.3-20.792-20.795l0-387.292 c0-11.494, 9.298-20.795, 20.792-20.795l 471.767,0 
	c 11.494,0, 20.795,9.3, 20.795,20.795L 512.676,417.646 C 512.678,429.138, 503.378,438.441, 491.884,438.441z M 101.14,39.88L 27.264,39.88 l0,73.446 l 73.876,0 
	L 101.14,39.88 z M 101.14,138.424L 27.264,138.424 l0,73.452 l 73.876,0 L 101.14,138.424 z M 101.14,236.977L 27.264,236.977 L 27.264,310.426 l 73.876,0 L 101.14,236.977 z M 101.14,335.524L 27.264,335.524 L 27.264,408.973 
	l 73.876,0 L 101.14,335.524 z M 382.51,39.88L 129.528,39.88 l0,161.155 l 252.982,0 L 382.51,39.88 z M 382.51,231.37L 129.528,231.37 L 129.528,408.973 l 252.982,0 L 382.51,231.37 z M 480.635,39.88
	L 406.758,39.88 l0,73.446 l 73.876,0 L 480.635,39.88 z M 480.635,138.424L 406.758,138.424 l0,73.452 l 73.876,0 L 480.635,138.424 z M 480.635,236.977L 406.758,236.977 L 406.758,310.426 l 73.876,0 L 480.635,236.977 z
	 M 480.635,335.524L 406.758,335.524 L 406.758,408.973 l 73.876,0 L 480.635,335.524 z"  />
<glyph unicode="&#xe002;" d="M 474.317,163.136l 12.027,23.869c 6.638,13.148, 1.28,29.292-11.876,35.927l-68.301,34.432
	c-13.146,6.602-29.32,1.28-35.958-11.84l-12.027-23.931L 474.317,163.136L 474.317,163.136z M 39.987,179.028
	c 34.463,13.399, 68.923,26.829, 103.416,40.261c 8.599,6.415, 17.198,12.841, 25.769,19.254l 53.688-107.658l 47.672,107.658
	c 8.85-6.541, 17.7-13.148, 26.547-19.694l 18.729-5.54l-3.43-6.797c-19.192-38.134-40.635-77.243-57.393-116.316l 6.356-67L 23.503,23.196 
	C 20.82,98.076, 25.777,151.45, 39.987,179.028L 39.987,179.028z M 145.71,312.637c-3.21,32.532-3.866,55.529, 6.013,88.123
	c 37.576,22.899, 83.443-14.118, 138.749-1.375c 5.455-27.046, 7.324-50.132, 5.706-88.274c0,0, 21.501,18.478, 24.492,34.307
	c 3.023,15.831-2.616,86.252-10.222,97.531C 280.038,488.128, 167.864,489.564, 134.523,450.644c-9.037-10.529-19.348-106.721-9.533-119.557
	C 134.774,318.285, 145.71,312.637, 145.71,312.637L 145.71,312.637z M 382.054,193.487l 55.46-27.917l 30.351-15.301l-59.515-118.162
	c-19.571-11.523-27.482-2.614-30.346,15.273c-22.436-4.145-41.539,0.223-53.281,23.217l 40.753,77.837l-7.227,3.73l-41.815-79.951
	c-15.145-6.292-21.691,2.496-24.241,18.388c 19.845,39.383, 39.695,78.771, 59.543,118.157L 382.054,193.487L 382.054,193.487z M 294.743,31.954
	l 4.797-50.726l 23.188-11.656l 43.651,26.301L 294.743,31.954z"  />
<glyph unicode="&#xe003;" d="M 18.406,421.957c0,0, 80.768-145.382, 255.764-126.536c0,0-29.614,56.538, 13.463,103.652
	c 43.075,47.114, 114.419,53.844, 164.227-6.73c0,0, 30.961,8.077, 44.424,29.614c0,0-4.037-44.086-20.193-57.042
	c0,0, 24.23-2.186, 33.654,8.584c0,0-22.881-37.693-43.075-45.768c0,0-25.577-434.813-464.417-284.045c0,0, 99.615-10.77, 152.113,40.384
	c0,0-113.075,60.575-142.692,189.814c0,0, 24.23-12.116, 45.768-5.386C 57.444,268.498-8.515,306.189, 18.406,421.957z"  />
<glyph unicode="&#xe004;" d="M 193.257,282.414c-36.739,0-57.605-30.838-57.605-59.113s 23.885-57.446, 54.858-57.446c 30.996,0, 42.634,9.093, 52.764,17.556
	c 10.13,8.443, 32.325,38.154, 39.923,47.688c 7.585,9.51, 17.649,19.945, 33.764,19.945s 26.54-14.945, 26.54-26.301
	c0-11.359-6.595-28.792-26.314-28.792s-32.415,19.732-32.415,19.732l-17.009-21.78c0,0, 17.009-28.339, 51.922-28.339
	c 34.913,0, 56.681,30.387, 56.681,56.456c0,26.079-16.681,60.442-58.729,60.442c-42.038,0-61.668-30.95-80.351-56.131
	c-18.729-25.167-30.164-29.117-40.835-29.117c-10.647,0-27.779,7.936-27.779,26.291c0,18.358, 12.831,28.905, 27.686,28.905
	c 14.812,0, 30.141-18.245, 30.141-18.245l 17.92,20.744C 234.516,265.037, 219.999,282.414, 193.257,282.414z M 381.253,2.45
	c-59.922-34.598-128.164-41.646-190.067-25.029c-61.949,16.589-117.55,56.794-152.125,116.739C 4.483,154.038-2.563,222.29, 14.026,284.227
	c 16.612,61.916, 56.817,117.517, 116.741,152.092c 59.899,34.598, 128.154,41.644, 190.067,25.032c 22.646-6.067, 44.434-15.286, 64.65-27.484
	l 29.806,45.302l 61.542-155.075l-168.65-7.744l 29.041,44.142c-12.334,7.068-25.482,12.483-39.078,16.141
	c-40.238,10.77-84.608,6.213-123.528-16.266c-38.943-22.464-65.055-58.606-75.86-98.844c-10.783-40.248-6.213-84.593, 16.253-123.515
	c 22.51-38.945, 58.616-65.080, 98.865-75.863c 40.251-10.806, 84.585-6.213, 123.528,16.253c 38.92,22.49, 65.078,58.616, 75.837,98.867
	c 5.875,21.903, 7.181,45.020, 3.535,67.845l 87.204,10.22c 4.908-33.933, 2.703-68.229-6.011-100.78
	C 481.38,92.649, 441.152,37.005, 381.253,2.45z"  />
<glyph unicode="&#xe005;" d="M 490.79,288.061c 12.5,0, 20.122,10.68, 20.122,23.852c0,2.253-1.641,4.408-2.194,6.477c 0.253,3.313-0.205,7.519-0.205,12.365
				c0,11.387-6.057,18.706-6.057,18.706L 415.27,480.934L 98.954,478.968c0,0-81.531-111.928-91.018-126.244C 2.301,344.179,0,330.755,0,330.755
				l0-22.776 c0-6.492, 9.633-21.532, 21.914-21.532c 3.878,0, 11.366,1.211, 11.366,3.18L 33.28,19.2 L 17.92,19.2 l0-53.76 l 481.28,0 l0,53.76 l-17.92,0 L 481.28,293.699 
				C 481.28,290.214, 485.256,288.061, 490.79,288.061z M 51.2,19.2L 51.2,291.392 c 17.92-2.371, 9.861-3.732, 14.418-3.732c 9.487,0, 18.706,6.359, 22.072,15.073
				c 3.372-8.714, 12.037-14.771, 21.507-14.771c 9.487,0, 17.853,6.208, 21.217,14.922c 3.364-8.714, 11.589-14.835, 21.059-14.835
				c 9.48,0, 17.654,6.157, 21.018,14.871c 3.364-8.714, 11.492-14.853, 20.961-14.853c 9.48,0, 17.582,6.157, 20.943,14.871
				c 3.364-8.714, 11.466-14.871, 20.954-14.871c 9.472,0, 17.554,6.157, 20.928,14.871c 3.364-8.714, 11.456-14.871, 20.943-14.871
				c 9.469,0, 17.559,6.157, 20.925,14.871c 3.364-8.714, 11.456-14.871, 20.925-14.871c 9.487,0, 17.562,6.157, 20.943,14.871
				c 3.348-8.714, 11.456-14.871, 20.943-14.871c 9.454,0, 17.546,6.157, 20.91,14.871c 3.379-8.714, 11.456-14.871, 20.943-14.871
				c 9.469,0, 17.559,6.157, 20.925,14.871c 3.364-8.714, 9.58-14.871, 19.049-14.871c 2.491,0, 5.22,0.471, 5.22,1.244L 448.005,19.2 L 51.2,19.2 zM 291.84,52.48l 138.24,0 L 430.080,241.92 l-138.24,0 L 291.84,52.48 z M 291.84,172.8l 17.92,0 l0-51.2 l-17.92,0 L 291.84,172.8 zM 258.56,241.92L 87.040,241.92 l0-139.633 l0,0L 87.040,70.4 l 6.909,0 l 162.644,0 L 258.56,70.4 l0,31.887 l0,0L 258.56,241.92 z M 240.64,88.32L 120.32,88.32 l0,135.68 l 120.32,0 L 240.64,88.32 z"  />
<glyph unicode="&#xe006;" d="M 491.617,474.88L 115.702,474.88 C 101.865,474.88, 84.48,466.104, 84.48,452.265L 84.48,398.080 l 331.955,0 c 13.844,0, 16.205-12.168, 16.205-26.010L 432.64,162.56 l 58.977,0 
		c 13.837,0, 17.823,10.22, 17.823,24.064L 509.44,452.265 C 509.44,466.104, 505.454,474.88, 491.617,474.88zM 416.435,398.080L 40.52,398.080 C 26.683,398.080,0,385.912,0,372.070l0-265.646 C0,92.588, 26.683,80.64, 40.52,80.64L 195.149,80.64 L 327.68-26.401L 327.68,80.64 l 88.755,0 
		c 13.844,0, 16.205,11.948, 16.205,25.784L 432.64,372.070 C 432.64,385.912, 430.28,398.080, 416.435,398.080z M 138.255,214.182c-13.837,0-25.060,11.228-25.060,25.065
		c0,13.839, 11.223,25.062, 25.060,25.062c 13.842,0, 25.065-11.223, 25.065-25.062C 163.32,225.411, 152.097,214.182, 138.255,214.182z M 228.477,214.182
		c-13.839,0-25.062,11.228-25.062,25.065c0,13.839, 11.223,25.062, 25.062,25.062c 13.844,0, 25.060-11.223, 25.060-25.062
		C 253.537,225.411, 242.322,214.182, 228.477,214.182z M 318.694,214.182c-13.844,0-25.060,11.228-25.060,25.065c0,13.839, 11.215,25.062, 25.060,25.062
		c 13.837,0, 25.060-11.223, 25.060-25.062C 343.754,225.411, 332.534,214.182, 318.694,214.182z"  />
<glyph unicode="&#xe007;" d="M 491.93,469.432L 125.476,469.432 c-11.087,0-20.070-8.983-20.070-20.081l0-255.99 c0-11.108, 8.986-20.093, 20.070-20.093l 163.579,0 l 22.999,0 l 3.62,0 
	c 8.248-0.2, 29.1-2.547, 40.722-20.472c 14.641-22.595, 57.708-61.082, 57.708-61.082s 14.664-11.287, 26.801-5.030
	c 12.111,6.282, 11.284,16.717, 11.284,33.882s0,47.296,0,47.296s0,5.407, 14.216,5.407l 25.526,0 c 11.085,0, 20.070,8.986, 20.070,20.093L 512,449.349 
	C 512,460.447, 503.014,469.432, 491.93,469.432z M 476.239,237.906c0-11.085-8.986-20.070-20.093-20.070L 163.136,217.836 c-11.108,0-20.093,8.986-20.093,20.070L 143.043,412.337 
	c0,11.098, 8.983,20.070, 20.093,20.070l 293.012,0 c 11.108,0, 20.093-8.973, 20.093-20.070L 476.242,237.906 z M 308.703,146.939l0-85.937 
	c0-8.425-6.817-15.265-15.242-15.265L 169.28,45.737 l-17.48,0 l-2.749,0 c-6.257-0.136-22.080-1.923-30.909-15.532
	c-11.131-17.165-43.83-46.377-43.83-46.377s-11.121-8.584-20.316-3.822c-9.208,4.759-8.584,12.718-8.584,25.725
	c0,13.053,0,35.894,0,35.894s0,4.111-10.796,4.111L 15.252,45.737 c-8.435,0-15.252,6.84-15.252,15.265l0,194.381 c0,8.404, 6.817,15.222, 15.252,15.222
	l 65.876,0 L 81.129,242.509 L 42.388,242.509 c-8.404,0-15.232-6.817-15.232-15.245l0-132.447 c0-8.428, 6.828-15.245, 15.232-15.245l 222.461,0 
	c 8.451,0, 15.265,6.817, 15.265,15.245l0,52.119 L 308.703,146.936 z M 460.147,371.113c0-8.538-6.927-15.468-15.488-15.468L 182.779,355.645 
	c-8.538,0-15.444,6.93-15.444,15.468l0,0c0,8.561, 6.907,15.478, 15.444,15.478l 261.88,0 C 453.22,386.591, 460.147,379.674, 460.147,371.113
	L 460.147,371.113z M 353.446,327.619c0-8.538-6.907-15.468-15.444-15.468L 182.779,312.151 c-8.538,0-15.444,6.93-15.444,15.468l0,0
	c0,8.561, 6.907,15.478, 15.444,15.478l 155.223,0 C 346.54,343.096, 353.446,336.179, 353.446,327.619L 353.446,327.619z M 460.147,282.45
	c0-8.561-6.927-15.468-15.488-15.468L 182.779,266.982 c-8.538,0-15.444,6.907-15.444,15.468l0,0c0,8.561, 6.907,15.488, 15.444,15.488l 261.88,0 
	C 453.22,297.938, 460.147,291.011, 460.147,282.45L 460.147,282.45z"  />
<glyph unicode="&#xe008;" d="M 314.196,295.084c0,0-5.791,6.679-12.47,6.679s-55.212-82.826-55.212-82.826s-10.688-17.812-16.031-17.812
		s-24.937,19.146-24.937,19.146s-11.133,12.47-24.046-4.897s-36.516-49.838-36.516-49.838S 126.282,144.64, 152.11,144.64l 207.951,0 
		c0,0, 11.139-2.744, 11.139,15.516c0,18.258,0,64.123,0,64.123s 0.013,8.015-8.896,16.476C 353.4,249.216, 314.196,295.084, 314.196,295.084zM 427.52,358.095c0,7.869-6.894,14.385-14.771,14.385L 99.251,372.48 C 91.382,372.48, 84.48,365.965, 84.48,358.095l0-270.751 
		c0-7.875, 6.902-14.385, 14.771-14.385l 313.498,0 c 7.875,0, 14.771,6.51, 14.771,14.385L 427.52,358.095 z M 399.36,115.845c0-7.875-7.235-14.725-15.109-14.725
		L 127.749,101.12 c-7.869,0-15.109,6.851-15.109,14.725L 112.64,329.595 C 112.64,337.464, 119.882,344.32, 127.749,344.32l 256.499,0 c 7.875,0, 15.109-6.856, 15.109-14.725L 399.357,115.845 z
		M 169.477,262.131c 16.978,0, 30.725,13.763, 30.725,30.725s-13.75,30.725-30.725,30.725S 138.752,309.819, 138.752,292.856
		S 152.499,262.131, 169.477,262.131zM 56.32,174.195L 56.32,289.057L-1.111,231.626 	zM 455.68,289.057L 455.68,174.195L 513.111,231.626 	z"  />
<glyph unicode="&#xe009;" d="M 25.971,62.239L 54.29,62.239L 54.29,207.949L 80.238,218.854L 80.238,62.239L 100.050,62.239L 100.050,227.19L 126.013,238.106L 126.013,62.239L 145.823,62.239L 145.823,246.436L 149.504,248L 171.763,215.739L 171.763,62.239L 191.601,62.239L 191.601,200.125L 217.536,213.041L 217.536,62.239L 237.35,62.239L 237.35,222.899L 263.306,235.817L 263.306,62.239L 283.121,62.239L 283.121,245.678L 309.069,258.596L 309.069,62.239L 328.883,62.239L 328.883,268.434L 354.842,281.352L 354.842,62.239L 374.633,62.239L 374.633,291.21L 400.617,304.128L 400.617,62.239L 499.128,62.239L 499.128,36.306L 25.971,36.306L0,36.306L0,62.239L0,422.152L 25.971,422.152L 25.971,278.799L 153.741,332.559L 170.429,339.571L 180.669,324.723L 203.909,291.049L 398.633,387.932L 378.301,426.772L 444.979,424.013L 511.654,421.233L 475.924,364.877L 440.184,308.531L 419.302,348.442L 206.525,242.575L 189.289,233.992L 178.301,249.91L 154.34,284.626L 25.971,230.602 z"  />
<glyph unicode="&#xe00a;" d="M 244.562,258.217c0-5.729-4.631-10.342-10.36-10.342L 10.34,247.875 c-5.709,0-10.34,4.611-10.34,10.342L0,451.674 
	c0,5.709, 4.631,10.36, 10.34,10.36l 223.862,0 c 5.729,0, 10.36-4.652, 10.36-10.36L 244.562,258.217 z M 223.542,431.291c0,5.729-4.631,10.36-10.36,10.36
	L 31.38,441.651 c-5.729,0-10.342-4.634-10.342-10.36l0-152.673 c0-5.729, 4.613-10.36, 10.342-10.36l 181.798,0 c 5.729,0, 10.36,4.631, 10.36,10.36L 223.539,431.291 z
	 M 44.797,291.692l 151.076,0 c0,0, 7.427-1.935, 7.427,11.338c0,13.256,0,46.595,0,46.595s 0.34,5.809-6.129,11.937
	c-6.487,6.167-34.596,39.465-34.596,39.465s-4.232,4.892-9.083,4.892c-4.851,0-40.105-60.188-40.105-60.188
	s-7.744-12.936-11.658-12.936c-3.873,0-18.107,13.914-18.107,13.914s-8.084,9.042-17.467-3.574S 39.626,306.906, 39.626,306.906
	S 26.030,291.692, 44.797,291.692z M 79.749,399.432c0,12.337-10.002,22.318-22.339,22.318c-12.337,0-22.318-9.981-22.318-22.318
	c0-12.337, 9.981-22.318, 22.318-22.318C 69.75,377.114, 79.749,387.092, 79.749,399.432z M 512,454.607l-223.58,0 L 288.42,415.002 L 512,415.002 L 512,454.607 z M 512,367.731
	l-223.58,0 l0-39.606 L 512,328.125 L 512,367.731 z M 426.401,287.48l-137.979,0 l0-39.606 l 137.979,0 L 426.401,287.48 z M 512,187.827L0,187.827 l0-39.606 l 512,0 L 512,187.827 z M 512,107.341L0,107.341 l0-39.608 
	l 512,0 L 512,107.341 z M 430.234,25.572L0,25.572 l0-39.608 l 430.234,0 L 430.234,25.572 z"  />
<glyph unicode="&#xe00b;" d="M 456.556,100.227L 59.474,100.227 c-5.583,0-10.104,4.544-10.104,10.161L 49.37,363.492 c0,5.588, 4.521,10.156, 10.104,10.156
			l 397.079,0 c 5.583,0, 10.135-4.567, 10.135-10.156l0-253.105 C 466.691,104.773, 462.136,100.227, 456.556,100.227z M 62.31,113.219l 391.427,0 
			L 453.737,360.635 L 62.31,360.635 L 62.31,113.219 zM 52.257,106.627L 3.825,96.489L 508.178,96.489L 456.914,106.627 		zM 508.178,93.281L 3.825,93.281 l-0.66,6.367l 49.093,10.235l 404.977,0 l 51.561-10.181L 508.178,93.281z M 35.118,99.75
			l 439.972,0 l-18.501,3.643L 52.611,103.393 L 35.118,99.75zM 76.8,339.2l0-209.92 l 350.72,0 L 427.52,339.2 L 76.8,339.2 z M 396.8,213.012L 396.8,229.12 L 110.080,229.12 l0-16.108 L 81.265,241.828L 110.080,270.643L 110.080,241.92 l 286.72,0 L 396.8,270.643 l 28.82-28.815
		L 396.8,213.012zM 503.68,80.84c 0.686,0, 1.236,0.561, 1.236,1.236l0,10.9 L 7.055,92.977 l0-10.9 c0-0.678, 0.553-1.236, 1.219-1.236
		L 503.68,80.84 z M 327.631,87.785l 168.325,0 c 1.283,0, 2.278-1.037, 2.278-2.276s-0.996-2.253-2.278-2.253l-168.325,0 c-1.254,0-2.25,1.014-2.25,2.253
		S 326.377,87.785, 327.631,87.785z M 247.985,87.785l 54.856,0 c 1.236,0, 2.278-1.037, 2.278-2.276s-1.039-2.253-2.278-2.253L 247.985,83.256 
		c-1.257,0-2.271,1.014-2.271,2.253S 246.728,87.785, 247.985,87.785z M 215.8,89.428c 2.22,0, 3.917-1.723, 3.917-3.917
		c0-2.153-1.697-3.968-3.917-3.968c-2.15,0-3.886,1.815-3.886,3.968C 211.914,87.706, 213.65,89.428, 215.8,89.428zM 0.553,99.425l0-17.347 c0-4.252, 3.476-7.724, 7.724-7.724L 503.68,74.355 c 4.273,0, 7.767,3.469, 7.767,7.724l0,17.347 
		L 0.553,99.425 z M 508.178,82.079c0-2.463-1.976-4.49-4.498-4.49L 8.274,77.588 c-2.455,0-4.452,2.028-4.452,4.49l0,14.116 l 504.353,0 L 508.175,82.079 zM 3.825,82.079c0-2.463, 1.994-4.49, 4.452-4.49L 503.68,77.588 c 2.519,0, 4.498,2.028, 4.498,4.49l0,14.116 L 3.825,96.195 
		L 3.825,82.079 z M 7.055,92.977l 497.861,0 l0-10.9 c0-0.678-0.553-1.236-1.236-1.236L 8.274,80.84 c-0.666,0-1.219,0.561-1.219,1.236L 7.055,92.977 zM 215.8,81.544c 2.22,0, 3.917,1.815, 3.917,3.968c0,2.194-1.697,3.917-3.917,3.917
		c-2.15,0-3.886-1.723-3.886-3.917C 211.914,83.359, 213.65,81.544, 215.8,81.544z"  />
<glyph unicode="&#xe00c;" d="M 255.823,480.673c-141.276,0-255.818-114.56-255.818-255.864c0-141.253, 114.542-255.818, 255.818-255.818s 255.841,114.565, 255.841,255.818
	C 511.665,366.111, 397.1,480.673, 255.823,480.673z M 480.586,267.318c-30.94-27.259-62.244-50.429-93.128-70.065
	c-3.003,3.958-6.943,7.201-11.517,9.331c 7.171,46.551, 7.094,86.456, 3.469,119.388c 5.601,5.599, 9.073,13.327, 9.073,21.85
	c0,4.045-0.788,7.875-2.196,11.412c 12.035,11.717, 21.637,21.893, 28.731,29.773C 448.238,356.803, 471.685,314.66, 480.586,267.318z
	 M 176.323,105.679c-2.929,13.967-15.334,24.489-30.195,24.489c-0.607,0-1.216-0.067-1.82-0.090c-1.523,22.065-2.237,44.723-2.355,67.384
	c 20.787,8.778, 40.497,18.148, 59.11,27.899c 22.948-27.686, 50.496-55.841, 83.389-82.719C 244.879,125.568, 208.143,113.81, 176.323,105.679z
	 M 92.408,178.596c 11.351,3.878, 22.403,7.99, 33.198,12.27c 0.238-21.084, 1.004-42.168, 2.483-62.761
	C 114.854,143.501, 102.968,160.343, 92.408,178.596z M 147.223,301.796c 11.968-20.165, 26.281-41.677, 43.538-63.693
	c-15.48-8.010-31.772-15.721-48.786-23.086c 0.243,29.66, 1.439,58.944, 3.118,86.415C 145.81,301.54, 146.519,301.647, 147.223,301.796z
	 M 215.468,233.157c 18.068,9.923, 35.031,20.168, 50.854,30.497c 16.891-27.067, 38.525-54.6, 66.189-80.033
	c-0.253-1.641-0.422-3.282-0.422-4.982c0-4.255, 0.845-8.284, 2.383-11.973c-11.305-5.916-22.533-11.564-33.539-16.65
	C 267.046,176.932, 238.861,205.261, 215.468,233.157z M 343.327,320.515c 4.291-2.253, 9.137-3.533, 14.318-3.533c 2.212,0, 4.339,0.256, 6.41,0.684
	c 2.788-30.326, 2.427-66.491-3.988-108.316c-8.049-0.763-15.183-4.6-20.227-10.307c-24.366,23.171-44.024,48.3-59.761,73.772
	C 303.972,289.039, 325.061,305.267, 343.327,320.515z M 344.653,153.807c 1.085-0.806, 2.191-1.533, 3.366-2.173
	c-2.563-9.713-5.327-19.612-8.543-29.814c-8.374,5.624-16.422,11.372-24.197,17.183C 324.974,143.611, 334.771,148.564, 344.653,153.807z
	 M 403.116,399.823c-6.561-7.324-15.508-16.801-26.56-27.661c-1.874,1.467-3.917,2.703-6.134,3.725
	c-5.729,22.702-12.948,41.761-20.15,57.288C 369.441,424.466, 387.203,413.222, 403.116,399.823z M 255.823,453.573
	c 25.068,0, 49.132-4.065, 71.685-11.52c 8.538-15.48, 18.102-36.756, 25.533-63.739c-14.838-2.237-26.258-14.994-26.258-30.495
	c0-6.008, 1.746-11.587, 4.726-16.317c-17.316-14.392-37.176-29.599-59.566-44.895C 235.628,351.053, 222.889,415.030, 218.429,450.488
	C 230.6,452.49, 243.080,453.573, 255.823,453.573z M 202.381,447.229c 3.484-28.114, 11.83-72.279, 31.9-121.009
	C 240.64,310.758, 248.499,294.275, 258.122,277.412c-16.404-10.693-34.092-21.34-52.972-31.606C 187.802,267.699, 173.448,289.083, 161.526,309.1
	c 6.226,5.665, 10.168,13.801, 10.168,22.876c0,13.97-9.298,25.766-22.031,29.555c 2.555,28.134, 5.304,52.178, 7.473,69.727
	C 171.459,438.116, 186.611,443.482, 202.381,447.229z M 139.653,421.868c-1.981-16.248-4.206-36.355-6.303-59.144
	c-7.898,17.313-13.471,32.031-17.262,43.149C 123.584,411.666, 131.453,417.032, 139.653,421.868z M 102.894,394.926
	c 3.983-11.116, 9.454-24.94, 16.689-40.632c-5.888-5.624-9.585-13.545-9.585-22.318c0-12.759, 7.739-23.683, 18.772-28.39
	c-1.882-30.218-3.164-62.633-3.226-95.432c-13.289-5.368-26.99-10.478-41.134-15.242c-24.927,48.128-34.744,94.508-38.618,122.575
	C 58.972,345.987, 78.564,373.033, 102.894,394.926z M 27.082,224.809c0,20.531, 2.737,40.399, 7.805,59.336
	c 5.821-27.095, 16.003-60.997, 34.040-96.389c-11.965-3.753-24.31-7.219-36.874-10.478C 28.818,192.632, 27.082,208.543, 27.082,224.809z
	 M 72.507,88.003c-16.358,21.847-28.815,46.769-36.524,73.687c 13.885,3.574, 27.515,7.452, 40.696,11.645
	c 10.934-19.231, 24.873-39.419, 42.463-59.098c-2.45-4.426-3.853-9.5-3.853-14.904c0-2.156, 0.21-4.214, 0.627-6.262
	C 96.402,90.002, 81.439,88.596, 72.507,88.003z M 84.9,72.881c 9.987,0.96, 23.15,2.557, 38.909,5.197
	c 2.959-3.108, 6.561-5.622, 10.593-7.283c 2.452-15.823, 5.476-30.966, 9.147-45.235C 121.464,38.039, 101.637,54.054, 84.9,72.881z
	 M 288.215-1.615c-10.583-1.49-21.386-2.299-32.392-2.299c-33.050,0-64.43,7.045-92.8,19.658
	c-4.951,16.292-8.86,34.181-11.914,53.174c 4.237,0.686, 6.454,2.22, 9.938,4.457C 178.107,60.014, 194.56,47.534, 217.6,36.462
	c0-0.172,0-0.376,0-0.596c0-17.037, 15.532-30.838, 32.561-30.838c 8.75,0, 17.482,3.643, 23.104,9.5c 6.259-2.084, 13.079-4.088, 19.681-5.967
	C 291.287,5.199, 289.964,1.797, 288.215-1.615z M 281.866,28.687c 0.535,2.319, 0.852,4.708, 0.852,7.178
	c0,17.039-13.798,30.843-30.838,30.843c-11.156,0-20.91-5.942-26.33-14.822c-18.698,9.541-36.088,20.57-52.134,33.050
	c 0.65,1.236, 1.203,2.534, 1.682,3.876c 35.809,8.881, 78.029,22.277, 123.594,42.55c 11.244-8.645, 23.104-17.121, 35.561-25.385
	c-8.901-26.107-20.014-53.711-33.818-82.775C 294.134,24.922, 287.959,26.752, 281.866,28.687z M 308.15,2.156
	c 0.384,0.748, 0.765,1.492, 1.126,2.237c 1.382-0.34, 2.836-0.637, 4.26-0.98C 311.77,2.964, 309.937,2.56, 308.15,2.156z
	 M 344.015,13.719c-9.375,1.615-18.614,3.407-27.602,5.512c 12.777,27.151, 23.235,53.071, 31.798,77.757
	c 20.572-12.91, 42.826-25.111, 66.683-36.503C 394.527,40.788, 370.547,24.814, 344.015,13.719z M 426.688,72.799
	c-26.409,12.349-50.857,25.702-73.216,39.908c 3.871,12.058, 7.148,23.683, 10.132,35.095c 3.899,0.087, 7.626,0.899, 11.036,2.301
	c 22.874-15.631, 48.85-29.665, 78.282-41.357C 445.343,95.926, 436.57,83.871, 426.688,72.799z M 387.948,160.64
	c 3.643,5.066, 5.809,11.269, 5.809,17.999c0,1.172-0.054,2.319-0.182,3.448c 29.768,18.762, 59.948,40.66, 89.805,66.276
	c 0.806-7.731, 1.196-15.585, 1.196-23.552c0-36.541-8.604-71.107-23.872-101.757C 433.562,133.663, 409.441,146.399, 387.948,160.64z"  />
<glyph unicode="&#xe00d;" d="M 505.71,298.975l-27.914-26.824l-72.364,75.423l 27.999,26.824c 8.532,8.256, 22.305,7.949, 30.492-0.655l 42.427-44.191
	C 514.606,320.934, 514.327,307.272, 505.71,298.975z M 196.608,84.918l 6.531-6.758l 39.834,12.564l-31.411,32.783L 196.608,84.918z M 240.108,191.506
	l-23.322-60.352l 33.408-34.675l 62.264,19.597L 240.108,191.506z M 430.164,263.941l-18.051,18.801l-17.946,18.819l-18.245,18.985l-126.781-121.646
	l 17.979-18.803l 18.127-18.819l 17.979-18.803l 18.263-18.97l 126.74,121.603L 430.164,263.941z M 398.664,342.252l-15.759-15.194l 72.351-75.407
	l 15.828,15.163L 398.664,342.252z M 176.829,74.55L 10.056,74.55 L 10.056,338.524 l 347.331,0 l0-13.396 l 6.948,6.692L 364.334,365.676 c0,7.754-5.266,14.528-13.018,14.528
	L 14.705,380.204 c-7.757,0-15.068-6.774-15.068-14.528l0-298.071 l 175.004,0 L 176.829,74.55z M 263.608,355.855c0,1.938, 1.574,3.51, 3.515,3.51l 79.813,0 
	c 1.938,0, 3.507-1.572, 3.507-3.51l0-6.874 c0-1.938-1.569-3.512-3.507-3.512l-79.813,0 c-1.94,0-3.515,1.572-3.515,3.512L 263.608,355.855 z
	 M 69.102,355.855c0,1.938, 1.572,3.51, 3.512,3.51l 180.536,0 c 1.94,0, 3.51-1.572, 3.51-3.51l0-6.874 c0-1.938-1.569-3.512-3.51-3.512
	L 72.614,345.469 c-1.94,0-3.512,1.572-3.512,3.512L 69.102,355.855 z M 48.264,355.855c0,1.938, 1.572,3.51, 3.512,3.51l 6.874,0 
	c 1.938,0, 3.51-1.572, 3.51-3.51l0-6.874 c0-1.938-1.572-3.512-3.51-3.512l-6.874,0 c-1.938,0-3.512,1.572-3.512,3.512L 48.264,355.855 z
	 M 30.897,355.855c0,1.938, 1.572,3.51, 3.512,3.51l 6.871,0 c 1.938,0, 3.512-1.572, 3.512-3.51l0-6.874 c0-1.938-1.572-3.512-3.512-3.512
	L 34.406,345.469 c-1.938,0-3.512,1.572-3.512,3.512L 30.894,355.855 z M 13.53,355.855c0,1.938, 1.572,3.51, 3.512,3.51L 23.91,359.365 
	c 1.94,0, 3.512-1.572, 3.512-3.51l0-6.874 c0-1.938-1.572-3.512-3.512-3.512L 17.042,345.469 c-1.94,0-3.512,1.572-3.512,3.512L 13.53,355.855 z
	 M 343.496,311.508l0,9.651 L 37.842,321.16 l0-86.833 l 221.581,0 L 343.496,311.508z M 114.255,223.905L 37.842,223.905 l0-3.471 l 76.413,0 L 114.255,223.905 z M 197.617,137.073L 121.203,137.073 
	l0-3.474 l 76.413,0 L 197.617,137.073 z M 194.143,126.653L 121.203,126.653 l0-3.474 l 72.94,0 L 194.143,126.653 z M 187.197,116.232L 121.203,116.232 l0-3.474 l 65.992,0 L 187.195,116.232 z
	 M 183.724,105.812L 121.203,105.812 l0-3.474 l 62.52,0 L 183.724,105.812 z M 180.25,95.393L 121.203,95.393 l0-3.474 L 180.25,91.919 L 180.25,95.393 z M 114.255,213.486L 37.842,213.486 l0-3.471 l 76.413,0 
	L 114.255,213.486 z M 114.255,203.064L 37.842,203.064 l0-3.471 l 76.413,0 L 114.255,203.064 z M 114.255,192.645L 37.842,192.645 l0-3.471 l 76.413,0 L 114.255,192.645 z M 114.255,182.226L 37.842,182.226 
	l0-3.471 l 76.413,0 L 114.255,182.226 z M 114.255,171.804L 37.842,171.804 l0-3.471 l 76.413,0 L 114.255,171.804 z M 114.255,161.385L 37.842,161.385 l0-3.471 l 76.413,0 L 114.255,161.385 z
	 M 114.255,150.966L 37.842,150.966 l0-3.471 l 76.413,0 L 114.255,150.966 z M 114.255,140.544L 37.842,140.544 l0-3.471 l 76.413,0 L 114.255,140.544 z M 114.255,130.125L 37.842,130.125 l0-3.471 l 76.413,0 
	L 114.255,130.125 z M 114.255,119.706L 37.842,119.706 l0-3.471 l 76.413,0 L 114.255,119.706 z M 114.255,109.284L 37.842,109.284 l0-3.471 l 76.413,0 L 114.255,109.284 z M 114.255,98.865L 37.842,98.865 l0-3.471 
	l 76.413,0 L 114.255,98.865 z M 114.255,88.445L 37.842,88.445 l0-3.474 l 76.413,0 L 114.255,88.445 z M 201.091,223.905L 121.203,223.905 l0-79.887 l 79.887,0 L 201.091,223.905 z"  />
<glyph unicode="&#xe00e;" d="M 244.692,394.486L 175.729,336.824L 141.811,445.481L 1.638,445.481L 1.638,416.719L 118.372,416.719L 178.483,123.282L 459.438,123.282L 510.362,394.486 			zM 264.694,43.645c0-22.73-18.396-41.124-41.103-41.124s-41.103,18.396-41.103,41.124c0,22.707, 18.396,41.103, 41.103,41.103
			S 264.694,66.353, 264.694,43.645zM 460.403,43.645c0-22.73-18.396-41.124-41.103-41.124c-22.705,0-41.101,18.396-41.101,41.124
			c0,22.707, 18.396,41.103, 41.101,41.103C 442.007,84.746, 460.403,66.353, 460.403,43.645z"  />
<glyph unicode="&#xe00f;" d="M 1.073,298.429l 1.961,0 l 80.148,0 l 73.469,136.525c 7.437,13.801, 24.852,19.008, 38.653,11.589
	l0,0c 13.801-7.447, 19.026-24.829, 11.589-38.63L 147.948,298.429l 212.925,0 l-58.947,109.484c-7.437,13.801-2.212,31.186, 11.589,38.63l0,0
	c 13.801,7.419, 31.214,2.212, 38.653-11.589l 73.469-136.525l 5.78,0 l 23.355,0 l 56.156,0 l0-58.79 l-32.791,0 l-49.882-218.614l-5.225-22.95l-23.319,0 L 103.613-1.925 
	l-23.365,0 l-5.228,22.95l-43.075,188.69l 60.111-0.018l 9.889-43.308l 84.662,0 L 186.609,239.639 L 3.034,239.639 L 1.073,239.639 L 1.073,298.429 L 1.073,298.429z M 109.432,133.558
	l 17.539-76.69l 59.64,0 l0,76.69 L 109.432,133.558 L 109.432,133.558z M 393.8,133.558l-69.814,0 l0-76.69 l 52.352,0 L 393.8,133.558L 393.8,133.558z
	 M 291.146,133.558L 219.428,133.558 l0-76.69 l 71.721,0 L 291.149,133.558 L 291.146,133.558z M 219.428,166.392l 71.721,0 L 291.149,239.639 L 219.428,239.639 L 219.428,166.392 L 219.428,166.392z
	 M 323.986,166.392l 77.335,0 l 16.694,73.247l-94.029,0 L 323.986,166.392 z"  />
<glyph unicode="&#xe010;" d="M 490.565,477.437L 21.435,477.437 c-10.862,0-19.684-8.804-19.684-19.684L 1.751-9.754 c0-10.88, 8.822-19.684, 19.684-19.684l 469.13,0 
		c 10.88,0, 19.684,8.804, 19.684,19.684L 510.249,457.754 C 510.249,468.634, 501.445,477.437, 490.565,477.437z M 468.421,29.599
		c0-9.034-7.345-16.361-16.417-16.361L 60.014,13.238 c-9.073,0-16.435,7.324-16.435,16.361L 43.579,418.404 c0,9.034, 7.363,16.358, 16.435,16.358l 391.987,0 
		c 9.073,0, 16.417-7.324, 16.417-16.358L 468.419,29.599 zM 96.077,387.203L 176.451,387.203L 176.451,70.6L 96.077,70.6zM 215.839,387.203L 296.182,387.203L 296.182,70.6L 215.839,70.6zM 332.283,387.203L 412.672,387.203L 412.672,70.6L 332.283,70.6z"  />
<glyph unicode="&#xe011;" d="M 505.761,294.088l-20.826-20.024l-53.967,56.261l 20.884,20.001c 6.362,6.157, 16.632,5.929, 22.738-0.476l 31.644-32.96
	C 512.394,310.464, 512.184,300.265, 505.761,294.088z M 275.226,134.431l 4.869-5.041l 29.706,9.37l-23.424,24.44L 275.226,134.431z
	 M 307.666,213.924l-17.393-45.005l 24.916-25.869l 46.436,14.615L 307.666,213.924z M 449.418,267.948l-13.466,14.034l-13.384,14.011l-13.606,14.182
	l-94.561-90.734l 13.414-14.034l 13.514-14.016l 13.409-14.029l 13.619-14.159l 94.528,90.714L 449.418,267.948z M 425.917,326.344l-11.753-11.318
	l 53.957-56.241l 11.804,11.3L 425.917,326.344z M 218.112,188.119c-0.934-0.44-1.805-0.996-2.611-1.659
	c-2.012-1.72-4.001-3.195-5.96-4.355c-1.979-1.16-4.052-2.115-6.208-2.86c-2.179-0.724-4.541-1.244-7.071-1.554
	c-2.537-0.289-5.348-0.435-8.415-0.435c-5.348,0-10.365,1.034-15.040,3.11c-4.677,2.071-8.771,5.079-12.275,9.060
	c-3.51,3.981-6.28,8.87-8.32,14.694c-2.043,5.806-3.046,12.439-3.046,19.942c0,7.132, 1.006,13.599, 3.046,19.32
	c 2.040,5.76, 4.869,10.655, 8.52,14.697c 3.648,4.042, 7.992,7.15, 13.079,9.306c 5.079,2.176, 10.696,3.277, 16.835,3.277
	c 3.543,0, 6.63-0.292, 9.265-0.829c 2.644-0.52, 4.954-1.162, 6.927-1.948c 1.969-0.748, 3.668-1.595, 5.107-2.488
	c 1.434-0.911, 2.757-1.741, 3.963-2.529c 1.201-0.748, 2.342-1.411, 3.407-1.948c 1.060-0.538, 2.199-0.788, 3.402-0.788
	c 1.802,0, 3.2,0.374, 4.216,1.139c 0.996,0.768, 1.866,1.638, 2.601,2.55l 11.42,15.342c-2.737,2.883-5.873,5.514-9.411,7.877
	c-3.553,2.363-7.419,4.396-11.63,6.116c-4.209,1.7-8.748,3.026-13.586,4.001c-4.844,0.973-10.002,1.449-15.485,1.449
	c-11.287,0-21.609-1.823-30.958-5.514c-9.359-3.668-17.393-8.809-24.108-15.421c-6.707-6.612-11.94-14.49-15.672-23.59
	c-3.753-9.121-5.619-19.154-5.619-30.019c0-10.698, 1.638-20.608, 4.913-29.727c 3.267-9.121, 7.959-16.996, 14.077-23.649
	c 6.116-6.656, 13.568-11.86, 22.346-15.629c 8.791-3.794, 18.732-5.66, 29.811-5.66c 12.096,0, 22.572,1.951, 31.424,5.844
	c 8.852,3.919, 16.212,9.7, 22.1,17.395l-13.422,14.134c-0.735,0.724-1.503,1.265-2.312,1.554c-0.796,0.289-1.605,0.456-2.401,0.456
	C 220.022,188.78, 219.044,188.554, 218.112,188.119z M 269.317,102.216c-24.773-17.974-55.237-28.611-88.197-28.611
	c-83.064,0-150.395,67.331-150.395,150.395c0,83.064, 67.331,150.395, 150.395,150.395c 70.369,0, 129.416-48.32, 145.833-113.6l 23.936,22.554
	c-24.525,70.149-91.254,120.481-169.766,120.481C 81.795,403.832, 1.28,323.315, 1.28,224c0-99.315, 80.515-179.83, 179.84-179.83
	c 56.238,0, 106.437,25.83, 139.42,66.25L 269.317,102.216z"  />
<glyph unicode="&#xe012;" d="M 488.138,410.88l-190.927,0 c-12.288,0-25.851-4.882-25.851-17.165l0-112.461 
		c0-10.808, 9.536-19.809, 19.748-21.809l 14.18-22.456c 1.244-2.107, 4.426-2.808, 6.536-1.564l 39.846,26.386
		c 0.090,0.049, 0.353,3.149, 0.428,3.149l 136.041,0 c 12.288,0, 23.862,4.009, 23.862,16.294l0,112.461 C 512,405.998, 500.426,410.88, 488.138,410.88zM 250.88,173.548l0,1.482 c 20.48-0.594, 36.127,4.116, 50.883,15.747
		c-12.524,7.539-23.268,15.905-31.027,34.88c 6.331-3.832, 13.709-6.482, 20.636-8.087l-16.717,23.365C 262.95,243.22, 250.88,253.519, 250.88,265.889
		L 250.88,391.808 c0,8.095-6.246,14.4-10.885,18.22c-17.83,14.607-43.663,21.99-70.948,22.492c-0.911,0.038-1.265,0.051-2.186,0.074
		C 166.523,432.602, 166.4,432.625, 166.4,432.625l0-0.020 c-28.16,0.635-59.379-6.838-78.597-22.577c-12.698-10.427-26.609-39.14-30.794-73.275
		c-11.42-93.112-29.161-101.804-58.652-117.445c 22.464-6.277, 42.688-4.406, 60.439,6.346c-7.77-18.975-19.958-27.341-32.494-34.88
		c 17.953-14.139, 38.996-18.202, 58.473-14.712c-19.177-4.918-40.279-4.943-51.558-16.466C-5.681,119.895-1.229,44.8, 4.383,16.64
		c 54.152,0, 108.296,0, 162.44,0c 29.983,0, 59.981,0, 89.964,0c 23.283,0, 46.577,0, 69.86,0c 5.612,28.16, 7.114,103.255-31.78,142.961
		C 285.627,169.039, 271.36,169.876, 250.88,173.548z M 98.977,300.536c 0.218,3.837, 0.602,7.626, 1.203,11.32
		c 8.955-2.086, 18.312-3.551, 27.799-4.559l 0.305,13.279l 4.26-1.037l 1.062-5.722l 2.022,8.735l 4.639-0.179l 7.286-16.509
		C 153.976,305.6, 158.72,305.564, 166.4,305.638l0-0.023 c0-0.005, 2.588,0.054, 3.75,0.054c 0.407,0.005, 0.927,0.005, 1.334,0.015
		c 3.881,0.018, 7.798,0.013, 11.727,0.177l-0.253,0.302C 189.801,306.534, 194.56,307.077, 202.24,307.73l0-0.43 c 5.12,0.886, 16.991,2.204, 24.97,3.919
		c 1.042,0.195, 2.381,0.379, 3.374,0.576c 1.615-12.872, 1.116-26.504-1.705-39.79c-1.185-5.535-2.678-11.018-4.621-16.351
		c-6.991-3.162-14.139-5.747-21.484-7.718c-7.959-2.143-16.148-3.51-24.581-3.986c-2.604,3.899-7.027,6.461-12.078,6.461
		c-8.054,0-14.548-6.525-14.548-14.536c0-8.005, 6.5-14.538, 14.554-14.538c 6.139,0, 11.366,3.786, 13.517,9.185
		c 9.142,0.558, 17.981,2.045, 26.57,4.344c 3.279,0.858, 6.505,1.871, 9.705,2.936c-10.921-18.644-27.602-33.708-50.222-40.471
		c-32.425,5.356-53.258,31.455-62.070,61.983C 99.748,272.653, 98.214,286.833, 98.977,300.536z M 163.448,30.213
		c-31.916,40.328-57.152,88.097-72.090,147.346c 12.908,3.546, 24.863,10.388, 34.358,19.799c 11.008-8.276, 24.148-14.052, 39.334-16.202l 1.656-0.243
		l 1.615,0.486c 0.812,0.223, 1.554,0.512, 2.348,0.758c 11.436,2.245, 21.632,6.559, 30.559,12.495c 8.532-8.94, 18.772-15.552, 30.579-20.055
		C 217.052,121.108, 194.284,72.975, 163.448,30.213z"  />
<glyph unicode="&#xe013;" d="M 1.843,261.975L 95.734,327.887L 120.046,357.327 	zM 133.12,326.4L 133.12,363.128L 105.692,326.4 	zM 140.8,362.24L 368.64,362.24L 368.64,326.4L 140.8,326.4zM 510.241,261.975L 392.038,357.327L 416.353,327.887 	zM 12.326,239.421L 94.72,298.007L 94.72,320.855L 1.818,254.067 	zM 376.32,326.4L 405.071,326.4L 376.32,363.128 	zM 409.6,298.007L 494.19,239.421L 504.256,254.067L 409.6,320.855 	zM 102.4,83.2l 302.080,0 L 404.48,318.72 L 102.4,318.72 L 102.4,83.2 z M 201.142,245.112c 23.401,0, 36.104-15.204, 44.756-24.061l-15.675-18.145c0,0-13.391,15.962-26.371,15.962
		c-12.987,0-24.215-9.226-24.215-25.288c0-16.056, 14.994-23.004, 24.312-23.004c 9.321,0, 19.333,3.464, 35.702,25.48
		c 16.369,22.024, 33.516,49.093, 70.305,49.093c 36.795,0, 51.374-30.060, 51.374-52.867s-19.044-49.38-49.582-49.38
		c-30.543,0-45.417,24.788-45.417,24.788l 14.876,19.044c0,0, 11.113-17.26, 28.365-17.26s 23.007,15.26, 23.007,25.196
		c0,9.928-9.116,23.002-23.209,23.002c-14.088,0-22.897-9.126-29.55-17.444c-6.653-8.34-26.056-34.322-34.911-41.72
		c-8.863-7.396-19.041-15.355-46.154-15.355s-47.997,25.523-47.997,50.258C 150.753,218.132, 169.019,245.112, 201.142,245.112z"  />
<glyph unicode="&#xe014;" d="M 4.265,475.295l0-81.121 l 503.47,0 L 507.735,475.295 L 4.265,475.295 z M 485.676,416.051L 26.324,416.051 L 26.324,453.437 l 459.351,0 L 485.676,416.051 z M 4.265,375.176l0-81.101 
	l 503.47,0 l0,81.101 L 4.265,375.176 z M 485.676,315.932L 26.324,315.932 L 26.324,353.321 l 459.351,0 L 485.676,315.932 z M 4.265,275.261l0-179.73 l 503.47,0 L 507.735,275.261 L 4.265,275.261 z
	 M 485.676,120.187L 26.324,120.187 L 26.324,253.404 l 459.351,0 L 485.676,120.187 z M 281.953,58.875l 225.782,0 l0-86.167 l-225.782,0 L 281.953,58.875 z"  />
<glyph unicode="&#xe015;" d="M 514.56,357.251L 514.56,440.607 C 514.56,454.482, 495.626,464.64, 481.728,464.64L 325.12,464.64 l0-138.24 l 156.608,0 C 495.626,326.4, 514.56,343.355, 514.56,357.251z M 422.4,377.6l-46.080,0 L 376.32,421.12 l 46.080,0 L 422.4,377.6 
			zM 19.668,326.4L 279.040,326.4 L 279.040,464.64 L 19.668,464.64 C 5.77,464.64-2.56,454.482-2.56,440.607l0-83.356 C-2.56,343.355, 5.77,326.4, 19.668,326.4zM 514.56,183.171L 514.56,266.527 c0,13.873-18.934,24.033-32.832,24.033L 325.12,290.56 l0-138.24 l 156.608,0 C 495.626,152.32, 514.56,169.275, 514.56,183.171z M 422.4,203.52l-46.080,0 
			L 376.32,247.040 l 46.080,0 L 422.4,203.52 zM 19.668,152.32L 279.040,152.32 L 279.040,290.56 L 19.668,290.56 C 5.77,290.56-2.56,280.402-2.56,266.527l0-83.359 C-2.56,169.275, 5.77,152.32, 19.668,152.32zM 514.56,11.651l0,83.359 c0,13.873-18.934,24.033-32.832,24.033L 325.12,119.043 l0-138.24 l 156.608,0 C 495.626-19.2, 514.56-2.245, 514.56,11.651z M 422.4,32l-46.080,0 
			l0,43.52 l 46.080,0 L 422.4,32 zM 19.668-19.2L 279.040-19.2 l0,138.24 L 19.668,119.040 C 5.77,119.040-2.56,108.879-2.56,95.007l0-83.359 C-2.56-2.245, 5.77-19.2, 19.668-19.2z"  />
<glyph unicode="&#xe016;" d="M 509.368,23.585c0-11.855-9.595-21.45-21.45-21.45L 24.082,2.135 c-11.855,0-21.45,9.595-21.45,21.45L 2.632,424.415 
	c0,11.855, 9.595,21.448, 21.45,21.448l 463.836,0 c 11.855,0, 21.45-9.595, 21.45-21.448L 509.368,23.585 z M 465.797,382.188
	c0,11.855-9.592,21.448-21.448,21.448L 67.651,403.635 c-11.855,0-21.448-9.595-21.448-21.448l0-316.375 c0-11.855, 9.595-21.448, 21.448-21.448l 376.699,0 
	c 11.855,0, 21.448,9.592, 21.448,21.448L 465.797,382.188 z M 95.468,92.959l 313.021,0 c0,0, 15.414-4.022, 15.414,23.46c0,27.479,0,96.52,0,96.52
	s 0.671,12.065-12.736,24.801c-13.404,12.736-71.721,81.774-71.721,81.774s-8.712,10.056-18.767,10.056s-83.116-124.672-83.116-124.672
	s-16.087-26.813-24.131-26.813c-8.044,0-37.537,28.823-37.537,28.823s-16.758,18.77-36.196-7.373
	c-19.438-26.143-54.963-75.072-54.963-75.072S 56.591,92.959, 95.468,92.959z M 167.857,316.163c0,25.533-20.695,46.249-46.249,46.249
	c-25.554,0-46.249-20.716-46.249-46.249s 20.695-46.249, 46.249-46.249C 147.162,269.916, 167.857,290.629, 167.857,316.163z"  />
<glyph unicode="&#xe017;" d="M 510.282,38.62c0,0,0,142.313,0,187.653s-29.916,42.601-29.916,42.601s-57.114,3.633-75.256,3.633
	s-12.705,20.844-12.705,20.844s0,65.272,0,106.066c0,40.796, 0.934,63.465-38.075,63.465c-38.968,0-61.614-57.114-95.199-148.687
	c-17.039-46.531-52.541-72.878-83.372-87.58L 175.759,247.117 c0,12.027-9.754,21.757-21.757,21.757L 23.462,268.874 c-12.024,0-21.757-9.731-21.757-21.757l0-240.238 
	c0-12.027, 9.731-21.757, 21.757-21.757l 130.542,0 c 12.004,0, 21.757,9.731, 21.757,21.757l0,22.712 c 2.061-0.020, 4.165-0.044, 6.333-0.044
	c 19.93,0, 27.195-5.44, 47.124-23.562c 19.95-18.125, 35.356-16.317, 35.356-16.317s 92.477-4.547, 170.455-4.547
	C 513.004-14.881, 510.282,38.62, 510.282,38.62z M 415.096,15.949c-71.644,3.633-142.364,5.437-142.364,5.437
	s-13.133-0.212-26.391,11.686c-13.258,11.896-29.916,25.155-53.711,23.114c-8.159-0.699-13.343-1.144-16.87-1.441l0,139.254 
	c 28.344,9.518, 71.731,28.173, 88.812,57.644c 26.314,45.34, 55.316,125.123, 62.561,145.966c 7.265,20.844, 39.9,39.882, 39.9,4.526
	s0-126.016,0-126.016s-3.61-33.528, 34.465-33.528c 38.072,0, 74.319,6.331, 74.319-26.304s0-161.349,0-161.349
	S 486.7,12.316, 415.096,15.949z"  />
<glyph unicode="&#xe018;" d="M 32.118-31.613l 211.709,182.246l 23.624,0 l 213.248-182.246L 32.118-31.613 z M 511.178-10.885l-165.276,143.235l 165.276,143.091L 511.178-10.885 z
	 M 243.827,479.613l 25.91,0 l 231.485-165.276l-184.282-157.637l-39.624,30.364L 235.43,187.064 l-40.369-30.364L 10.734,313.569L 243.827,479.613z
	 M 0.822,275.441l 166.881-143.091L 0.822-10.885L 0.822,275.441 z M 189.993,373.624c-38.625,0-60.577-32.428-60.577-62.159
	c0-29.757, 25.119-60.416, 57.702-60.416s 44.826,9.549, 55.483,18.442c 10.637,8.914, 33.989,40.143, 41.999,50.166
	c 7.964,9.979, 18.578,20.977, 35.502,20.977c 16.95,0, 27.899-15.749, 27.899-27.651c0-11.948-6.922-30.298-27.651-30.298
	c-20.749,0-34.125,20.749-34.125,20.749l-17.874-22.899c0,0, 17.874-29.778, 54.602-29.778c 36.726,0, 59.625,31.928, 59.625,59.354
	s-17.516,63.562-61.775,63.562c-44.214,0-64.852-32.586-84.516-59.013c-19.686-26.499-31.726-30.638-42.926-30.638
	c-11.2,0-29.212,8.328-29.212,27.651c0,19.302, 13.463,30.39, 29.1,30.39c 15.613,0, 31.724-19.19, 31.724-19.19l 18.826,21.814
	C 233.395,355.341, 218.12,373.624, 189.993,373.624z"  />
<glyph unicode="&#xe019;" d="M 256-30.377c-65.748,0-173.463,239.485-173.463,335.291c0,95.803, 77.66,173.463, 173.463,173.463
	s 173.466-77.66, 173.466-173.463C 429.466,209.108, 324.547-30.377, 256-30.377z M 349.268,304.891c0,51.52-41.769,93.268-93.268,93.268
	S 162.732,356.408, 162.732,304.891S 204.503,211.622, 256,211.622S 349.268,253.371, 349.268,304.891z"  />
<glyph unicode="&#xe01a;" d="M 324.296-30.042L 187.704-30.042 c-35.195,0-63.808,28.613-63.808,63.808L 123.896,414.211 c0,35.195, 28.613,63.788, 63.808,63.788
						l 136.591,0.044c 16.983,0, 33.065-6.648, 45.112-18.673c 12.045-12.068, 18.696-28.129, 18.696-45.156l0-380.447 
						C 388.104-1.431, 359.491-30.042, 324.296-30.042z M 324.296,467.466L 187.704,467.466 c-29.358,0-53.276-23.895-53.276-53.253l0-380.447 
						c0-29.358, 23.918-53.23, 53.276-53.23l 136.591,0 c 29.315,0, 53.21,23.872, 53.21,53.23L 377.505,414.211 c0,14.218-5.53,27.604-15.534,37.652
						C 351.875,461.957, 338.491,467.466, 324.296,467.466zM 153.738,382.569L 358.195,382.569L 358.195,69.048L 153.738,69.048zM 300.662,417.984c0-3.686-2.414-6.669-5.376-6.669L 216.602,411.315 c-2.875,0-5.309,2.985-5.309,6.669l0,0
						c0,3.686, 2.394,6.669, 5.376,6.669l 78.62,0 C 298.248,424.655, 300.662,421.67, 300.662,417.984L 300.662,417.984zM 262.528,35.476l-13.1,0 c-3.533,0-6.385-2.852-6.385-6.362l0-10.358 c0-3.466, 2.852-6.362, 6.385-6.362l 13.1,0 
					c 3.574,0, 6.451,2.895, 6.451,6.362l0,10.358 C 268.977,32.625, 266.102,35.476, 262.528,35.476zM 255.987,50.573c-14.679,0-26.55-11.935-26.55-26.637c0-14.659, 11.871-26.593, 26.55-26.593
					c 14.679,0, 26.596,11.935, 26.596,26.593C 282.583,38.638, 270.71,50.573, 255.987,50.573z M 271.173,18.757
					c0-4.608-3.886-8.471-8.645-8.471l-13.1,0 l0,0c-4.718,0-8.448,3.863-8.448,8.471l0,10.358 c0,4.649, 3.73,8.471, 8.448,8.471l 13.1,0 
					c 4.759,0, 8.645-3.82, 8.645-8.471L 271.173,18.757 zM 153.738,385.4L 358.195,385.4L 358.195,69.048L 153.738,69.048z"  />
<glyph unicode="&#xe01b;" d="M 117.309,264.96L 87.040,264.96 L 87.040,433.92 L 43.52,433.92 l0-168.96 L 14.536,264.96 C 7.926,264.96, 2.56,260.877, 2.56,254.267l0-39.414 C 2.56,208.243, 7.926,203.52, 14.536,203.52l 30.267,0 L 87.040,203.52 l 30.267,0 
		c 6.61,0, 10.691,4.723, 10.691,11.333L 127.997,254.267 C 128,260.877, 123.919,264.96, 117.309,264.96zM 307.387,328.96L 276.48,328.96 L 276.48,433.92 L 235.52,433.92 l0-104.96 L 204.613,328.96 C 198.003,328.96, 192,324.237, 192,317.627l0-39.414 C 192,271.603, 198.003,264.96, 204.613,264.96L 234.88,264.96 l 42.24,0 l 30.267,0 
		c 6.61,0, 12.613,6.643, 12.613,13.253L 320,317.627 C 320,324.237, 313.997,328.96, 307.387,328.96zM 497.464,203.52L 465.92,203.52 L 465.92,433.92 l-40.96,0 l0-230.4 l-30.267,0 c-6.612,0-13.253-6.003-13.253-12.613l0-39.414 c0-6.61, 6.641-11.973, 13.253-11.973l 30.264,0 l 42.24,0 
		l 30.267,0 c 6.61,0, 11.976,5.363, 11.976,11.973l0,39.414 C 509.44,197.517, 504.074,203.52, 497.464,203.52zM 43.52,180.48L 87.040,180.48L 87.040,11.52L 43.52,11.52zM 235.52,244.48L 276.48,244.48L 276.48,11.52L 235.52,11.52zM 424.96,119.040L 465.92,119.040L 465.92,11.52L 424.96,11.52z"  />
<glyph unicode="&#xe01c;" d="M 496.481,247.731l 15.805,0 l0-15.808 l0-161.713 l0-10.609 l-9.946-4.006l-58.657-23.675
		l-2.906-1.162l-2.952,0 L 255.365,30.758 l-15.808,0 l0,15.795 L 239.557,231.923 L 239.557,247.731 l 15.808,0 l 27.187,0 l0,4.411 c0,7.36, 2.995,14.034, 7.839,18.872
		c 4.833,4.851, 11.528,7.849, 18.872,7.849l 0.018,0 c 7.337,0, 14.031-3, 18.865-7.849c 4.833-4.838, 7.841-11.512, 7.841-18.872l0-4.411 l 12.961,0 
		l0,4.411 c0,7.36, 2.993,14.034, 7.839,18.872c 4.844,4.851, 11.528,7.849, 18.888,7.849l0,0c 7.355,0, 14.031-3, 18.865-7.849
		c 4.846-4.838, 7.841-11.512, 7.841-18.872l0-4.411 l 14.408,0 l0,4.411 c0,7.36, 3,14.034, 7.828,18.872c 4.844,4.851, 11.52,7.849, 18.883,7.849l0,0
		c 7.36,0, 14.031-3, 18.875-7.849c 4.833-4.838, 7.828-11.512, 7.828-18.872l0-4.411 L 496.481,247.731 L 496.481,247.731z M 480.676,91.835l0,124.283 
		l-10.473,0 l0-3.697 c0-7.363-2.995-14.036-7.828-18.888c-4.844-4.826-11.515-7.813-18.875-7.813l0,0c-7.363,0-14.039,2.988-18.883,7.813
		c-4.828,4.851-7.828,11.525-7.828,18.888l0,3.697 l-14.408,0 l0-3.697 c0-7.363-2.998-14.036-7.841-18.888c-4.833-4.826-11.51-7.813-18.865-7.813
		l0,0c-7.36,0-14.044,2.988-18.888,7.813c-4.846,4.851-7.839,11.525-7.839,18.888l0,3.697 l-12.961,0 l0-3.697 c0-7.363-3.011-14.036-7.841-18.888
		c-4.833-4.826-11.528-7.813-18.865-7.813l-0.018,0 c-7.345,0-14.039,2.988-18.872,7.813c-4.844,4.851-7.839,11.525-7.839,18.888l0,3.697 
		l-11.382,0 l0-153.761 l 151.931,0 l 32.276,36.774l 4.268,4.864l 5.612-3.223L 480.676,91.835L 480.676,91.835z M 449.062,68.088l 24.269,9.777
		l-10.386,6.019L 449.062,68.088L 449.062,68.088z M 340.672,125.443l-37.279,0 l0-23.956 l 37.279,0 L 340.672,125.443 L 340.672,125.443z M 393.964,125.443
		l-37.266,0 l0-23.956 l 37.266,0 L 393.964,125.443 L 393.964,125.443z M 449.748,125.443l-37.307,0 l0-23.956 l 37.307,0 L 449.748,125.443 L 449.748,125.443z M 340.672,165.514
		l-37.279,0 l0-23.967 l 37.279,0 L 340.672,165.514 L 340.672,165.514z M 393.964,165.514l-37.266,0 l0-23.967 l 37.266,0 L 393.964,165.514 L 393.964,165.514z M 449.748,165.514
		l-37.307,0 l0-23.967 l 37.307,0 L 449.748,165.514 L 449.748,165.514z M 309.263,263.060c-3,0-5.714-1.229-7.69-3.22
		c-1.992-1.969-3.231-4.708-3.231-7.695l0-39.724 c0-2.977, 1.236-5.719, 3.231-7.698c 1.974-1.994, 4.69-3.223, 7.69-3.223l 0.018,0 
		c 2.97,0, 5.711,1.226, 7.7,3.223c 1.966,1.976, 3.203,4.721, 3.203,7.698L 320.184,252.142 c0,2.988-1.236,5.729-3.203,7.695
		c-1.987,1.992-4.731,3.22-7.7,3.22L 309.263,263.058 L 309.263,263.060z M 375.675,263.060c-3,0-5.729-1.229-7.706-3.22
		c-1.981-1.969-3.21-4.708-3.21-7.695l0-39.724 c0-2.977, 1.226-5.719, 3.21-7.698c 1.974-1.994, 4.705-3.223, 7.706-3.223l0,0
		c 2.982,0, 5.706,1.226, 7.695,3.223c 1.974,1.976, 3.203,4.721, 3.203,7.698L 386.573,252.142 c0,2.988-1.226,5.729-3.203,7.695
		C 381.384,261.832, 378.657,263.060, 375.675,263.060L 375.675,263.060L 375.675,263.060z M 435.791,259.84c-1.981-1.969-3.213-4.708-3.213-7.695
		l0-39.724 c0-2.977, 1.229-5.719, 3.213-7.698c 1.987-1.994, 4.726-3.223, 7.708-3.223l0,0c 2.998,0, 5.711,1.226, 7.7,3.223
		c 1.987,1.976, 3.213,4.721, 3.213,7.698L 454.413,252.142 c0,2.988-1.226,5.729-3.213,7.695c-1.987,1.992-4.703,3.22-7.7,3.22l0,0
		C 440.517,263.060, 437.78,261.832, 435.791,259.84zM 223.439,266.099l 15.931,0 c-0.238,5.304-0.535,11.087-0.975,17.567l-0.013,0 
		c-0.794,45.545-18.179,103.7-36.826,117.373c-30.948,22.664-93.709,21.588-124.25-3.428c-11.003-9.027-23.135-33.889-26.757-63.447
		C 40.66,253.54, 25.249,246.011-0.287,232.468c 19.461-5.435, 36.956-3.817, 52.316,5.496c-6.733-16.44-17.293-23.685-28.155-30.203
		c 15.555-12.25, 33.774-15.754, 50.629-12.741c-16.609-4.26-34.88-6.641-44.652-16.609c-33.682-34.383-29.827-101.617-24.952-126.144
		c 72.845,0, 145.695,0, 218.54,0L 223.439,266.099 z M 87.828,312.599c 7.759-1.797, 15.872-3.064, 24.079-3.945l 0.266,11.5l 3.692-0.893l 0.911-4.966
		l 1.772,7.567l 3.999-0.154l 6.492-14.292c 27.546-1.137, 54.426,1.682, 71.905,5.135c 1.385-11.139, 0.865-22.961-1.572-34.458
		c-1.016-4.8-2.373-9.533-4.050-14.164c-6.060-2.726-12.262-4.966-18.634-6.674c-6.886-1.864-13.983-3.039-21.279-3.453
		c-2.255,3.374-6.1,5.601-10.47,5.601c-6.966,0-12.598-5.652-12.598-12.598c0-6.932, 5.635-12.575, 12.598-12.575
		c 5.309,0, 9.851,3.274, 11.707,7.944c 7.923,0.492, 15.58,1.784, 23.004,3.763c 2.839,0.737, 5.64,1.618, 8.407,2.55
		c-9.462-16.143-23.916-29.194-43.494-35.054c-28.063,4.657-46.113,27.241-53.745,53.681c-3.343,11.551-4.685,23.826-4.022,35.702
		C 86.986,306.12, 87.324,309.407, 87.828,312.599z M 142.633,68.723c-27.648,34.924-49.503,76.293-62.438,127.578
		c 11.174,3.080, 21.524,9.006, 29.75,17.152c 9.541-7.165, 20.915-12.16, 34.066-14.024l 1.436-0.207l 1.403,0.415
		c 10.173,2.808, 19.203,7.217, 27.092,12.846c 7.636-8.486, 17.021-14.605, 27.868-18.729C 189.046,147.436, 169.326,105.756, 142.633,68.723z"  />
<glyph unicode="&#xe01d;" d="M 234.084,203.395c-1.989-1.935-3.438-4.104-4.357-6.492c-0.916-2.396-1.375-4.915-1.375-7.567
			c0-6.008, 1.907-10.87, 5.732-14.584c 3.82-3.715, 8.832-6.851, 15.045-9.39l 4.58,46.129c-4.682-0.712-8.632-1.756-11.837-3.131
			C 238.664,206.986, 236.065,205.327, 234.084,203.395zM 191.183,352c-5.857,0-10.606-5.663-10.606-11.52c0-5.855, 4.749-11.52, 10.606-11.52l 120.21,0 c 5.855,0, 10.609,5.665, 10.609,11.52
			c0,5.857-4.751,11.52-10.609,11.52L 191.183,352 zM 188.828,372.48l 133.174,0 c0,0, 12.966,30.932, 25.923,46.249c 12.966,15.314, 20.037,22.828, 20.037,22.828s-18.45,12.040-45.724,22.016
			c-13.727-17.505-33.423-42.145-41.487-51.308c0,0-0.594,11.901, 12.966,47.844c 1.59,4.232, 3.011,8.038, 4.296,11.448
			c-27.896,7.217-60.687,10.307-91.773,0.23c 1.306-3.471, 2.755-7.427, 4.39-11.763c 13.555-35.942, 12.961-47.941, 12.961-47.941
			C 215.841,420.89, 197.404,443.722, 183.788,461.066c-12.416-7.119-24.266-19.771-35.031-32.906C 148.756,428.163, 188.828,400.64, 188.828,372.48zM 356.759,270.459C 316.695,304.64, 321.405,308.48, 321.405,308.48L 187.052,308.48 c0,0-17.083-20.746-57.155-61.99
			c-40.072-41.249-70.71-70.482-70.71-151.8c0-81.316, 24.161-124.792, 195.633-124.792c 171.476,0, 197.99,62.574, 197.99,131.517
			S 396.826,236.283, 356.759,270.459z M 333.146,70.259c-3.259-8.507-8.038-16.013-14.362-22.533c-6.313-6.518-14.044-11.835-23.217-15.956
			c-9.17-4.129-19.653-6.651-31.46-7.567l-1.841-19.095c-0.302-2.849-1.58-6.879-3.82-9.172c-2.243-2.291-5.143-4.895-8.707-4.895
			l-17.416,0 l 3.059,32.929c-11.72,1.935-22.892,6.049-33.533,10.89c-10.647,4.833-19.63,11.034-26.964,17.856l 14.666,21.417
			c 1.224,1.725, 2.872,3.267, 4.964,4.434c 2.084,1.175, 4.303,1.81, 6.643,1.81c 2.445,0, 4.938-0.617, 7.485-1.887
			c 2.547-1.272, 5.325-2.816, 8.328-4.649c 3.003-1.83, 6.285-3.681, 9.853-5.568c 3.564-1.887, 7.636-3.441, 12.221-4.662l 5.65,57.751
			c-7.334,2.043-14.612,4.444-21.842,7.206c-7.237,2.762-13.75,6.484-19.556,11.187s-10.516,10.683-14.129,17.94
			c-3.617,7.25-5.427,16.353-5.427,27.29c0,8.072, 1.631,15.939, 4.89,23.603c 3.259,7.665, 8.023,14.569, 14.287,20.7
			c 6.264,6.131, 13.975,11.159, 23.14,15.094s 19.653,5.911, 31.468,5.911l 1.684,17.226c 0.305,2.893, 1.574,2.404, 3.82,4.731
			c 2.232,2.327, 5.133,0.387, 8.709,0.387l 17.416,0 l-3.064-26.985c 11.008-2.038, 20.48-3.768, 28.424-8.297c 7.941-4.531, 14.666-8.62, 20.163-13.814
			l-11.615-16.566c-1.725-2.555-3.492-4.211-5.263-5.384c-1.795-1.175-3.907-1.669-6.351-1.669c-1.631,0-3.453,0.41-5.494,1.121
			c-2.030,0.717-4.268,1.641-6.712,2.703c-2.445,1.070-5.069,2.23-7.872,3.446c-2.803,1.229-5.788,2.294-8.934,3.223l-5.345-54.228
			c 4.89-1.423, 9.777-2.985, 14.666-4.654c 4.887-1.684, 9.597-3.617, 14.129-5.814c 4.531-2.181, 8.755-4.708, 12.677-7.552
			c 3.922-2.86, 7.334-6.216, 10.235-10.081c 2.9-3.876, 5.166-8.328, 6.794-13.371c 1.631-5.041, 2.442-10.77, 2.442-17.185
			C 338.033,87.854, 336.404,78.769, 333.146,70.259zM 272.806,113.116l-4.89-50.417c 16.806,2.957, 25.206,12.221, 25.206,27.809c0,5.801-1.853,10.432-5.581,13.893
			C 283.827,107.866, 278.909,110.769, 272.806,113.116z"  />
<glyph unicode="&#xe01e;" d="M 503.982,160.827c-7.178,7.764-9.871,22.159-5.98,32.015c 3.894,9.833-0.973,21.066-10.826,24.957
	c-9.833,3.873-18.509,15.693-19.259,26.235c-0.771,10.545-10.038,18.552-20.6,17.782c-10.542-0.771-23.478,6.124-28.749,15.288
	c-5.271,9.165-17.093,12.367-26.255,7.096c-9.165-5.271-23.826-4.703-32.543,1.277c-8.737,5.98-20.759,3.75-26.742-4.987
	c-5.96-8.74-19.423-14.559-29.865-12.956c-10.46,1.582-20.334-5.655-21.937-16.097c-1.58-10.463-11.169-21.553-21.286-24.655
	c-10.117-3.082-15.854-13.908-12.764-24.005c 3.113-10.115-0.73-24.287-8.504-31.444c-7.754-7.178-8.241-19.402-1.055-27.19
	c 7.176-7.764, 9.853-22.159, 5.97-31.992s 0.983-21.084, 10.826-24.957c 9.843-3.873, 18.519-15.695, 19.29-26.258
	c 0.75-10.542, 10.017-18.529, 20.58-17.761c 10.542,0.75, 23.478-6.124, 28.749-15.288s 17.093-12.367, 26.255-7.094
	c 9.165,5.271, 23.826,4.682, 32.543-1.3c 8.737-5.98, 20.759-3.73, 26.742,4.989c 5.96,8.758, 19.402,14.556, 29.865,12.974
	c 10.463-1.603, 20.334,5.635, 21.937,16.097c 1.58,10.463, 11.169,21.532, 21.286,24.635c 10.097,3.103, 15.854,13.926, 12.751,24.026
	c-3.1,10.117, 0.73,24.269, 8.497,31.427C 510.674,140.815, 511.16,153.062, 503.982,160.827z M 370.798,33.846
	c-65.428,0-118.648,53.222-118.648,118.651s 53.222,118.628, 118.648,118.628s 118.648-53.199, 118.648-118.628S 436.224,33.846, 370.798,33.846z
	 M 370.798,269.704c-64.637,0-117.21-52.575-117.21-117.21c0-64.637, 52.572-117.21, 117.21-117.21s 117.21,52.572, 117.21,117.21
	C 488.008,217.129, 435.436,269.704, 370.798,269.704z M 370.798,39.726c-62.182,0-112.758,50.588-112.758,112.771
	c0,62.162, 50.575,112.748, 112.758,112.748s 112.748-50.586, 112.748-112.748C 483.546,90.312, 432.98,39.726, 370.798,39.726z
	 M 370.798,261.268c-59.973,0-108.774-48.801-108.774-108.774c0-59.996, 48.801-108.795, 108.774-108.795s 108.774,48.801, 108.774,108.795
	C 479.572,212.467, 430.771,261.268, 370.798,261.268z M 290.611,150.467l-0.85-5.962l-4.216,4.321l-5.942-1.034l 2.801,5.353l-2.801,5.353
	l 5.942-1.032l 4.216,4.319l 0.85-5.96l 5.414-2.678L 290.611,150.467z M 420.147,78.938l-86.231,0 l0,23.255 l 29.074,0 l0,76.375 
	c0,3.73, 0.12,7.665, 0.323,11.74l-17.129-14.234c-1.116-0.911-2.232-1.562-3.348-1.928c-1.096-0.384-2.168-0.568-3.223-0.568
	c-1.805,0-3.407,0.404-4.805,1.198c-1.441,0.791-2.496,1.644-3.182,2.532l-10.181,13.524l 47.16,39.575l 26.601,0 l0-128.218 l 24.94,0 L 420.145,78.938 z
	 M 449.283,158.495l 5.96-1.032l 4.198,4.319l 0.85-5.96l 5.414-2.678l-5.414-2.675l-0.85-5.962l-4.198,4.321l-5.96-1.034l 2.819,5.353
	L 449.283,158.495z M 266.079,54.751c-0.829,11.372-10.186,23.621-20.792,27.817c-10.614,4.175-15.864,16.038-11.668,26.66
	c 4.178,10.606, 1.277,26.012-6.456,34.388c-7.744,8.392-7.217,21.509, 1.157,29.235c 8.384,7.744, 12.498,22.991, 9.165,33.9
	s 2.849,22.546, 13.757,25.871c 1.044,0.323, 2.058,0.771, 3.103,1.257c-2.332,13.281-1.764,30.008-3.75,59.364l0,0
	c-0.832,47.26-18.875,107.62-38.218,121.792c-32.115,23.539-97.239,22.403-128.929-3.548c-11.405-9.367-24.005-35.177-27.766-65.853
	C 45.407,261.978, 29.42,254.172, 2.931,240.123c 20.193-5.655, 38.349-3.973, 54.287,5.699c-6.986-17.052-17.933-24.573-29.217-31.345
	c 16.128-12.713, 35.044-16.343, 52.541-13.22c-17.244-4.401-36.211-5.901-46.339-16.261c-34.954-35.663-30.958-106.586-25.902-129.923
	c 85.975,0, 171.932,0, 257.887,0C 266.189,55.073, 266.097,54.525, 266.079,54.751z M 93.294,313.093c 0.192,3.466, 0.548,6.874, 1.065,10.179
	c 8.059-1.887, 16.474-3.185, 24.978-4.116l 0.294,11.963l 3.812-0.932l 0.955-5.151l 1.833,7.826l 4.147-0.161l 6.753-14.799
	c 28.577-1.175, 56.466,1.743, 74.601,5.312c 1.439-11.556, 0.901-23.803-1.623-35.743c-1.055-4.989-2.463-9.915-4.206-14.7
	c-6.287-2.839-12.723-5.151-19.343-6.932c-7.137-1.925-14.497-3.164-22.070-3.569c-2.342,3.487-6.326,5.798-10.867,5.798
	c-7.227,0-13.066-5.86-13.066-13.059c0-7.217, 5.839-13.056, 13.066-13.056c 5.514,0, 10.22,3.384, 12.155,8.23
	c 8.212,0.507, 16.161,1.846, 23.875,3.914c 2.931,0.771, 5.85,1.682, 8.719,2.655c-9.823-16.768-24.817-30.31-45.133-36.372
	c-29.115,4.805-47.859,28.262-55.777,55.675C 93.996,288.054, 92.605,300.785, 93.294,313.093z M 151.219,70.221
	c-28.69,36.211-51.356,79.153-64.778,132.375c 11.597,3.182, 22.333,9.344, 30.868,17.8c 9.905-7.439, 21.693-12.631, 35.348-14.559l 1.48-0.223
	l 1.469,0.445c 10.552,2.921, 19.909,7.483, 28.111,13.32c 7.918-8.799, 17.659-15.145, 28.91-19.443
	C 199.383,151.885, 178.936,108.639, 151.219,70.221z"  />
<glyph unicode="&#xe01f;" d="M 25.247,56.645l 474.353,0 l0-26.063 L 25.247,30.582 L-0.771,30.582 l0,26.063 L-0.771,417.418 L 25.247,417.418 L 25.247,334.976 
	l 35.323,11.318l 12.278,3.955l 6.195-11.361l 28.429-52.127l 115.103,53.545l 20.931,9.738l 1.247-23.137l 1.28-23.526l 58.207,18.657l 8.781,2.834
	l 6.674-6.31l 102.973-97.098l 44.902,35.94c-0.41,1.761-0.663,3.612-0.663,5.555c0,12.644, 10.266,22.909, 22.932,22.909
	c 12.641,0, 22.93-10.266, 22.93-22.909c0-12.69-10.289-22.932-22.93-22.932c-2.47,0-4.756,0.389-6.996,1.098l-43.827-35.072l 46.868-44.214
	l-21.376-22.728l-50.115,47.235l-56.287-45.015c 0.046-0.732, 0.090-1.441, 0.090-2.173c0-12.667-10.266-22.909-22.907-22.909
	c-12.664,0-22.93,10.243-22.93,22.909c0,0.548, 0.023,1.121, 0.067,1.667l-58.516,57.705c-2.194-0.686-4.48-1.050-6.892-1.050
	c-2.88,0-5.647,0.525-8.197,1.531l-66.348-48.993l0-0.369 c0-12.664-10.276-22.907-22.92-22.907c-12.664,0-22.932,10.243-22.932,22.907
	c0,1.029, 0.079,2.035, 0.195,3.018l-23.171,23.206c-2.504-0.96-5.225-1.464-8.036-1.464c-2.629,0-5.169,0.458-7.511,1.257
	L 25.247,110.075L 25.247,56.645 L 25.247,56.645z M 335.288,162.066c 3.658,0, 7.089-0.845, 10.15-2.378l 52.631,42.089l-93.051,87.747
	l-68.713-22.039l-19.261-6.149l-1.098,20.211l-1.108,20.644L 107.428,252.191l-13.274-6.149l-7.020,12.895L 57.838,312.66L 25.247,302.213l0-159.9 
	l 47.99,50.092c-0.353,1.577-0.548,3.246-0.548,4.938c0,12.641, 10.266,22.907, 22.92,22.907s 22.932-10.266, 22.932-22.907
	c0-1.487-0.148-2.929-0.425-4.344l 22.303-22.313c 2.79,1.234, 5.888,1.897, 9.134,1.897c 4.242,0, 8.23-1.167, 11.661-3.177l 63.283,46.73
	c-0.251,1.395-0.389,2.813-0.389,4.275c0,12.644, 10.243,22.909, 22.909,22.909c 12.664,0, 22.92-10.266, 22.92-22.909
	c0-1.966-0.241-3.886-0.709-5.693l 55.841-55.053C 328.156,161.198, 331.584,162.066, 335.288,162.066z"  />
<glyph unicode="&#xe020;" d="M 256,480C 114.615,480,0,365.385,0,224s 114.615-256, 256-256s 256,114.615, 256,256S 397.385,480, 256,480z M 256,16
	c-114.875,0-208,93.125-208,208S 141.125,432, 256,432s 208-93.125, 208-208S 370.875,16, 256,16zM 304,272l-144,80l-32,0 l0-32 l 80-144l 144-80l 32,0 l0,32 L 304,272z M 256,192c-17.673,0-32,14.327-32,32c0,17.673, 14.327,32, 32,32
	c 17.673,0, 32-14.327, 32-32C 288,206.327, 273.673,192, 256,192z"  />
<glyph unicode="&#xe021;" d="M 256,480C 167.634,480, 96,408.366, 96,320c0-160, 160-352, 160-352s 160,192, 160,352C 416,408.366, 344.365,480, 256,480z M 256,222
	c-54.124,0-98,43.876-98,98s 43.876,98, 98,98s 98-43.876, 98-98S 310.124,222, 256,222zM 194,320A62,62 1260 1 1 318,320A62,62 1260 1 1 194,320z"  />
<glyph unicode="&#xe022;" d="M0,384L 160,448L 160,64L0,0 zM 352,384 L 352,0 L 192,53.333 L 192,437.333 ZM 512,448 L 512,64 L 384,12.8 L 384,396.8 Z"  />
<glyph unicode="&#xe023;" d="M 256,480C 167.634,480, 96,408.366, 96,320c0-160, 160-352, 160-352s 160,192, 160,352C 416,408.366, 344.365,480, 256,480z M 256,224
	c-53.020,0-96,42.98-96,96s 42.98,96, 96,96s 96-42.98, 96-96S 309.020,224, 256,224z"  />
<glyph unicode="&#xe024;" d="M 488.791,382.769c-16.992,4.854-34.705-4.985-39.56-21.978L 446.72,352L 148.249,352 l-4.496,35.969
		C 141.751,403.983, 128.138,416, 112,416L 32,416 C 14.327,416,0,401.673,0,384s 14.327-32, 32-32l 51.751,0 l 28.496-227.969
		C 114.249,108.018, 127.862,96, 144,96l 272,0 c 14.287,0, 26.844,9.472, 30.769,23.209l 64,224
		C 515.624,360.202, 505.784,377.914, 488.791,382.769z M 256,224l0,32 l 63.998,0 l0-32 L 256,224 z M 319.998,192l0-32 L 256,160 l0,32 L 319.998,192 z M 256,288l0,32 
		l 63.998,0 l0-32 L 256,288 z M 152.249,320L 224,320 l0-32 l-67.751,0 L 152.249,320z M 160.249,256L 224,256 l0-32 l-59.751,0 L 160.249,256z M 168.249,192L 224,192 l0-32 l-51.751,0 
		L 168.249,192z M 391.862,160l-39.864,0 l0,32 l 49.007,0 L 391.862,160z M 410.148,224l-58.15,0 l0,32 l 67.293,0 L 410.148,224z M 428.434,288l-76.436,0 
		l0,32 l 85.579,0 L 428.434,288zM 128,16A48,48 2700 1 1 224,16A48,48 2700 1 1 128,16zM 320,16A48,48 2700 1 1 416,16A48,48 2700 1 1 320,16z"  />
<glyph unicode="&#xe025;" d="M 423.609,192c 17.6,0, 35.956,13.846, 40.791,30.769l 46.418,162.463C 515.653,402.154, 505.209,416, 487.609,416L 160,416 
	c0,35.346-28.654,64-64,64L0,480 l0-64 l 96,0 l0-272 c0-26.51, 21.49-48, 48-48l 304,0 c 17.673,0, 32,14.327, 32,32s-14.327,32-32,32L 160,160 l0,32 L 423.609,192 z
	 M 160,352l 289.403,0 l-27.429-96L 160,256 L 160,352 zM 192,8c0-22-18-40-40-40l-16,0 c-22,0-40,18-40,40l0,16 c0,22, 18,40, 40,40l 16,0 c 22,0, 40-18, 40-40L 192,8 zM 480,8c0-22-18-40-40-40l-16,0 c-22,0-40,18-40,40l0,16 c0,22, 18,40, 40,40l 16,0 c 22,0, 40-18, 40-40L 480,8 z"  />
<glyph unicode="&#xe026;" d="M 512,265.372c0,100.463-29.396,181.969-65.741,182.613c 0.146,0.003, 0.289,0.015, 0.436,0.015l-41.471,0 
	c0,0-97.4-73.168-237.615-101.877c-4.28-22.646-7.015-49.637-7.015-80.751c0-31.114, 2.733-58.104, 7.015-80.75
	c 140.214-28.709, 237.615-101.878, 237.615-101.878l 41.471,0 c-0.146,0-0.289,0.012-0.436,0.016C 482.607,83.404, 512,164.909, 512,265.372
	z M 432.412,110.374c-4.691,0-9.766,4.871-12.373,7.774c-6.315,7.032-12.396,17.98-17.594,31.664
	c-11.628,30.616-18.033,71.655-18.033,115.562c0,43.905, 6.405,84.945, 18.033,115.561c 5.197,13.684, 11.281,24.633, 17.594,31.664
	c 2.607,2.906, 7.682,7.776, 12.373,7.776c 4.69,0, 9.768-4.872, 12.372-7.776c 6.317-7.032, 12.398-17.979, 17.594-31.664
	c 11.629-30.615, 18.034-71.656, 18.034-115.561c0-43.902-6.405-84.944-18.034-115.562c-5.195-13.684-11.281-24.632-17.594-31.664
	C 442.18,115.245, 437.104,110.374, 432.412,110.374z M 125.906,265.372c0,25.975, 1.905,51.215, 5.526,74.547
	c-23.686-3.277-44.471-5.162-70.17-5.162c-33.529,0-33.529,0-33.529,0L0,287.414l0-44.085 l 27.73-47.343c0,0,0,0, 33.53,0
	c 25.699,0, 46.484-1.887, 70.17-5.162C 127.812,214.156, 125.906,239.397, 125.906,265.372z M 184.075,158.914l-63.999,12.255
	l 40.921-160.772c 2.118-8.317, 10.372-12.519, 18.343-9.327l 59.278,23.726c 7.972,3.188, 11.164,11.982, 7.098,19.542L 184.075,158.914zM 432.412,205.635c-1.809,0-3.764,1.877-4.769,2.996c-2.435,2.71-4.778,6.93-6.781,12.204
	c-4.481,11.8-6.95,27.617-6.95,44.539c0,16.922, 2.469,32.739, 6.95,44.539c 2.003,5.274, 4.348,9.494, 6.781,12.204
	c 1.005,1.12, 2.96,2.997, 4.769,2.997c 1.808,0, 3.765-1.878, 4.769-2.997c 2.435-2.71, 4.778-6.929, 6.78-12.204
	c 4.482-11.799, 6.951-27.617, 6.951-44.539c0-16.921-2.469-32.739-6.951-44.539c-2.002-5.274-4.348-9.494-6.78-12.204
	C 436.177,207.512, 434.221,205.635, 432.412,205.635z"  />
<glyph unicode="&#xe027;" d="M 512,192L 512,384 l-96,0 L 416,416 c0,17.6-14.4,32-32,32L 32,448 C 14.4,448,0,433.6,0,416l0-96 c0-17.6, 14.4-32, 32-32l 352,0 c 17.6,0, 32,14.4, 32,32l0,32 l 64,0 
	l0-128 L 192,224 l0-64 l-16,0 c-8.837,0-16-7.163-16-16l0-160 c0-8.837, 7.163-16, 16-16l 64,0 c 8.837,0, 16,7.163, 16,16L 256,144 c0,8.837-7.163,16-16,16l-16,0 l0,32 
	L 512,192 z M 384,384L 32,384 L 32,416 l 352,0 L 384,384 z"  />
<glyph unicode="&#xe028;" d="M 447.97,163.249c-0.006,0.353-0.015,0.701-0.021,1.053c-0.016,0.714-0.035,1.427-0.059,2.14C 442.875,324.266, 256,480, 256,480
		S 69.123,324.266, 64.11,166.439c-0.022-0.715-0.044-1.426-0.060-2.141c-0.007-0.352-0.015-0.701-0.021-1.053
		c-0.018-1.080-0.028-2.162-0.028-3.248c0-1.184, 0.014-2.361, 0.035-3.539c 0.002-0.098, 0.003-0.195, 0.007-0.293
		C 66.082,51.899, 151.241-32, 256-32c 104.758,0, 189.916,83.899, 191.959,188.168c 0.002,0.098, 0.004,0.196, 0.005,0.293
		c 0.021,1.178, 0.036,2.357, 0.036,3.539C 448,161.086, 447.988,162.168, 447.97,163.249z M 383.975,157.63l-0.004-0.203
		c-0.659-33.643-14.266-65.167-38.313-88.774C 321.587,45.017, 289.743,32, 256,32c-6.231,0-12.397,0.447-18.462,1.319
		c 69.528,41.423, 116.108,117.352, 116.108,204.161c0,9.728-0.59,19.317-1.726,28.74c 20.136-36.97, 31.032-71.4, 32.001-101.813
		l 0.002-0.072c 0.016-0.474, 0.026-0.946, 0.039-1.422l 0.014-0.724C 383.99,161.461, 384,160.73, 384,160
		C 384,159.208, 383.99,158.419, 383.975,157.63z"  />
<glyph unicode="&#xe029;" d="M 480.002,335.997L 368.003,447.996L 400.003,479.996L 512.002,367.997zM 448,304 L 432,128 C 288,128 80-32 80-32 L 53.435-5.435 L 190.267,131.397 C 195.754,129.213 201.734,128 208,128 C 234.51,128 256,149.49 256,176 C 256,202.51 234.51,224 208,224 C 181.49,224 160,202.51 160,176 C 160,169.734 161.213,163.755 163.397,158.267 L 26.565,21.435 L 0,48 C 0,48 160,256 160,400 L 336,416 L 448,304 Z"  />
<glyph unicode="&#xe02a;" d="M 192,186.667c0,0, 101.972,61.18, 159.383,37.013c 11.901,18.134, 23.624,37.668, 35.101,57.611
	C 330.321,295.051, 256,282.667, 256,282.667s 95.106,57.061, 153.333,39.2c 11.675,21.054, 23.027,41.821, 33.978,61.152
	C 396.923,386.153, 352,378.667, 352,378.667s 59.574,35.744, 113.289,41.799C 482.188,447.896, 497.874,469.406, 512,480C 231.5,480, 64,160,0-32
	l 32,0 l 96,160c0,0, 32-32, 128,0c 22.737,7.579, 45.474,28.626, 67.786,56.967C 267.478,199.244, 192,186.667, 192,186.667z"  />
<glyph unicode="&#xe02b;" d="M 448,352L 448,416 L0,416 l0-352 c0-17.673, 14.327-32, 32-32l 432,0 c 26.511,0, 48,21.489, 48,48L 512,352 L 448,352 z M 416,64L 32,64 L 32,384 l 384,0 L 416,64 zM 64,320L 384,320L 384,288L 64,288zM 256,256L 384,256L 384,224L 256,224zM 256,192L 384,192L 384,160L 256,160zM 256,128L 352,128L 352,96L 256,96zM 64,256L 224,256L 224,96L 64,96z"  />
<glyph unicode="&#xe02c;" d="M 512,184.778 L 256,383.491 L 0,184.777 L 0,265.796 L 256,464.509 L 512,265.795 ZM 448,192 L 448,0 L 320,0 L 320,128 L 192,128 L 192,0 L 64,0 L 64,192 L 256,336 Z"  />
<glyph unicode="&#xe02d;" d="M 64,352l0-320 l 448,0 L 512,352 L 64,352 z M 480,85.333L 416,192l-72.533-60.444L 288,224L 96,64L 96,320 l 384,0 L 480,85.333 zM 128,240A48,48 7740 1 1 224,240A48,48 7740 1 1 128,240zM 448,416L0,416L0,96L 32,96L 32,384L 448,384 	z"  />
<glyph unicode="&#xe02e;" d="M 320,192 C 372.935,192 420.935,170.467 455.701,135.701 L 410.467,90.467 C 387.29,113.645 355.289,128 320,128 C 284.711,128 252.711,113.645 229.533,90.467 L 184.299,135.701 C 219.065,170.467 267.065,192 320,192 ZM 93.726,226.274 C 154.166,286.714 234.525,320 320,320 C 405.475,320 485.834,286.714 546.275,226.274 L 501.020,181.020 L 501.020,181.020 C 452.667,229.372 388.38,256 320,256 C 251.619,256 187.333,229.372 138.981,181.019 L 93.726,226.274 ZM 494.392,412.781 C 547.743,390.215 595.65,357.917 636.783,316.783 L 636.783,316.783 L 591.529,271.529 C 519.001,344.057 422.569,384 320,384 C 217.43,384 121,344.057 48.471,271.529 L 3.216,316.784 C 44.35,357.917 92.257,390.215 145.608,412.781 C 200.86,436.15 259.534,448 320,448 C 380.466,448 439.139,436.15 494.392,412.781 ZM 288,32A32,32 2700 1 1 352,32A32,32 2700 1 1 288,32z" horiz-adv-x="640"  />
<glyph unicode="&#xe02f;" d="M 464,416L 48,416 C 21.6,416,0,394.4,0,368l0-288 c0-26.4, 21.6-48, 48-48l 416,0 c 26.4,0, 48,21.6, 48,48L 512,368 C 512,394.4, 490.4,416, 464,416z M 48,384
		l 416,0 c 8.673,0, 16-7.327, 16-16l0-48 L 32,320 l0,48 C 32,376.673, 39.327,384, 48,384z M 464,64L 48,64 c-8.673,0-16,7.327-16,16L 32,224 l 448,0 l0-144 
		C 480,71.327, 472.673,64, 464,64zM 64,160L 96,160L 96,96L 64,96zM 128,160L 160,160L 160,96L 128,96zM 192,160L 224,160L 224,96L 192,96z"  />
<glyph unicode="&#xe030;" d="M 352,160c-32-32-32-64-64-64s-64,32-96,64s-64,64-64,96s 32,32, 64,64S 128,448, 96,448S0,352,0,352c0-64, 65.75-193.75, 128-256
	s 192-128, 256-128c0,0, 96,64, 96,96S 384,192, 352,160z"  />
<glyph unicode="&#xe031;" d="M 480,352c 17.673,0, 32,14.327, 32,32L 512,448 l-64,0 L 448,480 L 32,480 C 14.4,480,0,465.601,0,448l0-448 c0-17.6, 14.398-32, 32-32l 416,0 L 448,96 l 32,0 
	c 17.673,0, 32,14.327, 32,32l0,64 l-64,0 l0,32 l 32,0 c 17.673,0, 32,14.327, 32,32l0,64 l-64,0 l0,32 L 480,352 z M 288,351.835
	c 35.255,0, 63.835-28.58, 63.835-63.835s-28.58-63.835-63.835-63.835c-35.255,0-63.835,28.58-63.835,63.835
	S 252.745,351.835, 288,351.835z M 128,0L 96,0 L 96,448 l 32,0 L 128,0 z M 384,96L 192,96 l0,32 c0,35.347, 28.654,64, 64,64l0,0 l 64,0 c 35.348,0, 64-28.653, 64-64
	L 384,96 z"  />
<glyph unicode="&#xe032;" d="M 449.18,448L 64,448 l0-64 L 17.18,384 C 8.38,384,0,377.736,0,368.936l0-32 C0,328.136, 8.38,320, 17.18,320L 64,320 l0-32 L 17.18,288 
	C 8.38,288,0,281.736,0,272.936l0-32 C0,232.136, 8.38,224, 17.18,224L 64,224 l0-32 L 17.18,192 C 8.38,192,0,185.736,0,176.936l0-32 
	C0,136.137, 8.38,128, 17.18,128L 64,128 l0-32 L 17.18,96 C 8.38,96,0,89.736,0,80.936l0-32 C0,40.136, 8.38,32, 17.18,32L 64,32 l0-64 l 385.18,0 
	c 17.674,0, 30.82,15.263, 30.82,32.936l0,416 C 480,434.609, 466.854,448, 449.18,448z M 160,0L 96,0 l0,32 l 17.18,0 c 8.8,0, 14.82,8.136, 14.82,16.936
	l0,32 c0,8.801-6.021,15.064-14.82,15.064L 96,96 l0,32 l 17.18,0 c 8.8,0, 14.82,8.136, 14.82,16.936l0,32 c0,8.801-6.021,15.064-14.82,15.064L 96,192 l0,32 
	l 17.18,0 c 8.8,0, 14.82,8.136, 14.82,16.936l0,32 c0,8.801-6.021,15.064-14.82,15.064L 96,288 l0,32 l 17.18,0 c 8.8,0, 14.82,8.136, 14.82,16.936l0,32 
	C 128,377.737, 121.98,384, 113.18,384L 96,384 L 96,416 l 64,0 L 160,0 z"  />
<glyph unicode="&#xe033;" d="M 544,416L 32,416 C 14.4,416,0,401.6,0,384l0-320 c0-17.6, 14.4-32, 32-32l 512,0 c 17.6,0, 32,14.4, 32,32L 576,384 C 576,401.6, 561.6,416, 544,416z M 320,352
	l 64,0 l0-64 l-64,0 L 320,352 z M 416,256l0-64 l-64,0 l0,64 L 416,256 z M 224,352l 64,0 l0-64 l-64,0 L 224,352 z M 320,256l0-64 l-64,0 l0,64 L 320,256 z M 128,352l 64,0 l0-64 l-64,0 L 128,352 z M 224,256l0-64 
	l-64,0 l0,64 L 224,256 z M 64,352l 32,0 l0-64 L 64,288 L 64,352 z M 64,256l 64,0 l0-64 L 64,192 L 64,256 z M 96,96L 64,96 l0,64 l 32,0 L 96,96 z M 384,96L 128,96 l0,64 l 256,0 L 384,96 z M 512,96l-96,0 l0,64 l 96,0 
	L 512,96 z M 512,192l-64,0 l0,64 l 64,0 L 512,192 z M 512,288l-96,0 l0,64 l 96,0 L 512,288 z" horiz-adv-x="576"  />
<glyph unicode="&#xe034;" d="M 160,288L 224,288L 224,224L 160,224zM 256,288L 320,288L 320,224L 256,224zM 352,288L 416,288L 416,224L 352,224zM 64,96L 128,96L 128,32L 64,32zM 160,96L 224,96L 224,32L 160,32zM 256,96L 320,96L 320,32L 256,32zM 160,192L 224,192L 224,128L 160,128zM 256,192L 320,192L 320,128L 256,128zM 352,192L 416,192L 416,128L 352,128zM 64,192L 128,192L 128,128L 64,128zM 416,480l0-32 l-64,0 L 352,480 L 128,480 l0-32 L 64,448 L 64,480 L0,480 l0-512 l 480,0 L 480,480 L 416,480 z M 448,0L 32,0 L 32,352 l 416,0 L 448,0 z"  />
<glyph unicode="&#xe035;" d="M 128,448L 384,448L 384,384L 128,384zM 480,352L 32,352 C 14.4,352,0,337.6,0,320l0-160 c0-17.6, 14.398-32, 32-32l 96,0 l0-128 l 256,0 L 384,128 l 96,0 c 17.6,0, 32,14.4, 32,32L 512,320 
		C 512,337.6, 497.6,352, 480,352z M 352,32L 160,32 L 160,192 l 192,0 L 352,32 z M 487.2,304c0-12.813-10.387-23.2-23.199-23.2
		c-12.813,0-23.201,10.387-23.201,23.2s 10.388,23.2, 23.201,23.2C 476.814,327.2, 487.2,316.813, 487.2,304z"  />
<glyph unicode="&#xe036;" d="M 288,205.255 L 342.627,150.627 L 297.373,105.373 L 224,178.745 L 224,288 L 288,288 ZM 416,448 C 469.020,448 512,405.020 512,352 C 512,319.508 495.855,290.791 471.154,273.421 C 447.859,334.943 398.943,383.859 337.421,407.154 C 354.791,431.855 383.509,448 416,448 ZM 174.579,407.154 C 113.057,383.859 64.141,334.943 40.846,273.421 C 16.145,290.791 0,319.508 0,352 C 0,405.020 42.98,448 96,448 C 128.492,448 157.209,431.855 174.579,407.154 ZM 256,384C 149.961,384, 64,298.039, 64,192c0-46.337, 16.416-88.839, 43.747-122.010L 96-32l 32,0 l 32,57.69l-0.004,0.004
		C 188.238,9.355, 221.025,0, 256,0c 34.974,0, 67.76,9.355, 96.002,25.693L 352,25.691L 384-32l 32,0 l-11.751,101.984
		C 431.583,103.157, 448,145.66, 448,192C 448,298.039, 362.039,384, 256,384z M 256,64c-70.692,0-128,57.308-128,128s 57.308,128, 128,128
		s 128-57.308, 128-128S 326.692,64, 256,64z"  />
<glyph unicode="&#xe037;" d="M 329.372,105.372L 224,210.745L 224,352L 288,352L 288,237.255L 374.628,150.628 	zM 256,480C 114.615,480,0,365.385,0,224s 114.615-256, 256-256s 256,114.615, 256,256S 397.385,480, 256,480z M 256,32
		c-106.039,0-192,85.961-192,192c0,106.039, 85.961,192, 192,192c 106.039,0, 192-85.961, 192-192C 448,117.961, 362.039,32, 256,32z"  />
<glyph unicode="&#xe038;" d="M 490.594,335.946c-44.404,6.384-91.691,11.008-141.038,13.61L 432,432l-32,32L 287.721,351.722
	C 277.218,351.906, 266.643,352, 256,352l0,0L 128,480L 96,448l 97.098-97.098c-60.461-2.121-118.169-7.262-171.693-14.956
	C 7.639,282.083,0,222.57,0,160s 7.639-122.083, 21.402-175.945C 93.223-26.271, 172.572-32, 256-32
	c 83.428,0, 162.775,5.729, 234.594,16.055C 504.361,37.917, 512,97.43, 512,160S 504.361,282.083, 490.594,335.946z M 431.946,42.703
	C 378.081,35.82, 318.571,32, 256,32c-62.571,0-122.083,3.82-175.946,10.703C 69.73,78.611, 64,118.286, 64,160
	c0,41.715, 5.729,81.39, 16.054,117.298C 133.917,284.181, 193.429,288, 256,288c 62.568,0, 122.081-3.819, 175.943-10.702
	C 442.271,241.39, 448,201.715, 448,160C 448,118.286, 442.271,78.611, 431.946,42.703z"  />
<glyph unicode="&#xe039;" d="M 400,480L 80,480 C 53.6,480, 32,458.4, 32,432l0-416 c0-26.4, 21.6-48, 48-48l 320,0 c 26.4,0, 48,21.6, 48,48L 448,432 C 448,458.4, 426.4,480, 400,480z M 240-16
	c-8.836,0-16,7.163-16,16s 7.164,16, 16,16s 16-7.163, 16-16S 248.836-16, 240-16z M 384,32L 96,32 L 96,416 l 288,0 L 384,32 z"  />
<glyph unicode="&#xe03a;" d="M 352,480L 160,480 L 64,416l0-128 l 384,0 L 448,416 L 352,480z M 320,320l-32,0 l0,21.333 C 288,347.2, 283.2,352, 277.333,352l-42.666,0 
		c-5.866,0-10.667-4.8-10.667-10.667L 224,320 l-32,0 l0,53.333 C 192,379.2, 196.801,384, 202.667,384l 106.665,0 c 5.867,0, 10.668-4.8, 10.668-10.667
		L 320,320 zM 64,127.999l 384,0 L 448,256 L 64,256 L 64,127.999 z M 192,213.334c0,5.867, 4.801,10.666, 10.667,10.666l 106.665,0 
		c 5.867,0, 10.668-4.799, 10.668-10.666L 320,160 l-32,0 l0,21.334 c0,5.867-4.8,10.666-10.667,10.666l-42.666,0 
		c-5.866,0-10.667-4.799-10.667-10.666L 224,160 l-32,0 L 192,213.334 zM 64-32l 384,0 L 448,95.999 L 64,95.999 L 64-32 z M 192,53.334c0,5.867, 4.801,10.666, 10.667,10.666l 106.665,0 c 5.867,0, 10.668-4.799, 10.668-10.666
		L 320,0 l-32,0 l0,21.334 c0,5.867-4.8,10.666-10.667,10.666l-42.666,0 c-5.866,0-10.667-4.799-10.667-10.666L 224,0 l-32,0 L 192,53.334 z"  />
<glyph unicode="&#xe03b;" d="M 352,384L 160,384 L0,192l0-128 c0-17.673, 14.327-32, 32-32l 448,0 c 17.674,0, 32,14.327, 32,32L 512,192 L 352,384z M 320,128L 192,128 l-32,32l 192,0 
		L 320,128z M 41.655,192l 133.333,160l 162.024,0 l 133.333-160L 41.655,192 zM 142.482,288L 369.518,288L 342.851,320L 169.148,320 	zM 89.149,224L 422.852,224L 396.185,256L 115.815,256 	z"  />
<glyph unicode="&#xe03c;" d="M 416,448L 96,448 L0,352l0-336 c0-8.837, 7.163-16, 16-16l 480,0 c 8.836,0, 16,7.163, 16,16L 512,352 L 416,448z M 320,160l0-96 L 192,64 l0,96 L 96,160 l 160,128
	l 160-128L 320,160 z M 77.255,384l 32,32l 293.488,0 l 32-32L 77.255,384 z"  />
<glyph unicode="&#xe03d;" d="M 256,192L 384,320L 288,320L 288,448L 224,448L 224,320L 128,320 	zM 372.363,244.364L 336.493,208.493L 466.533,160L 256,81.491L 45.467,160L 175.507,208.493L 139.636,244.364L0,192L0,64L 256-32L 512,64L 512,192 	z"  />
<glyph unicode="&#xe03e;" d="M 192,416A64,64 12780 1 1 320,416A64,64 12780 1 1 192,416zM 327.765,359.765A64,64 12780 1 1 455.765,359.765A64,64 12780 1 1 327.765,359.765zM 416,224A32,32 12780 1 1 480,224A32,32 12780 1 1 416,224zM 359.765,88.235A32,32 12780 1 1 423.765,88.23500000000001A32,32 12780 1 1 359.765,88.23500000000001zM 224.001,32A32,32 12780 1 1 288.001,32A32,32 12780 1 1 224.001,32zM 88.236,88.235A32,32 12780 1 1 152.236,88.23500000000001A32,32 12780 1 1 88.236,88.23500000000001zM 72.236,359.765A48,48 12780 1 1 168.236,359.765A48,48 12780 1 1 72.236,359.765zM 28,224A36,36 12780 1 1 100,224A36,36 12780 1 1 28,224z"  />
<glyph unicode="&#xe03f;" d="M 352,480c-88.365,0-160-71.634-160-160c0-10.013, 0.929-19.808, 2.688-29.312L0,96l0-96 c0-17.673, 14.327-32, 32-32
	l 32,0 l0,32 l 64,0 l0,64 l 64,0 l0,64 l 64,0 l 41.521,41.521C 314.526,163.363, 332.869,160, 352,160c 88.365,0, 160,71.634, 160,160S 440.365,480, 352,480z
	 M 399.937,319.937c-26.51,0-48,21.49-48,48s 21.49,48, 48,48s 48-21.49, 48-48S 426.447,319.937, 399.937,319.937z"  />
<glyph unicode="&#xe040;" d="M 448,256l 8,0 c 13.2,0 24,10.8 24,24l0,80 c0,13.2-10.8,24-24,24l-8,0 L 448,480 l-64,0 l 0-96 l-8,0 c-13.2,0, -24-10.8, -24-24l 0-80 c 0-13.2, 10.8-24, 24-24l 8,0 
		l 0-288 L 448-32 L 448,256 z M 384,352L 448,352 l 0-64 l-64,0 L 384,352 zM 296,64c 13.2,0 24,10.8 24,24l0,80 c0,13.2-10.8,24-24,24l-8,0 L 288,480 l-64,0 l 0-288 l-8,0 c-13.2,0, -24-10.8, -24-24l 0-80 c 0-13.2, 10.8-24, 24-24l 8,0 
		l 0-96 l 64,0 l0,96 L 296,64 z M 224,160l 64,0 l 0-64 l-64,0 L 224,160 zM 136,256c 13.2,0 24,10.8 24,24l0,80 c0,13.2-10.8,24-24,24l-8,0 L 128,480 l-64,0 l 0-96 l-8,0 c-13.2,0, -24-10.8, -24-24l 0-80 c 0-13.2, 10.8-24, 24-24l 8,0 
		l 0-288 l 64,0 L 128,256 L 136,256 z M 64,352l 64,0 l 0-64 l-64,0 L 64,352 z"  />
<glyph unicode="&#xe041;" d="M 416,384L 416,448 L 96,448 l0-64 L0,384 l0-32 l0-32 c0-53.019, 42.979-96, 96-96c 10.038,0, 19.715,1.543, 28.81,4.401
	c 23.087-33.004, 58.304-56.898, 99.19-65.198L 224,64 l-32,0 c-35.347,0-64-28.653-64-64l 256,0 c0,35.347-28.653,64-64,64l-32,0 l0,99.203 
	c 40.886,8.3, 76.103,32.193, 99.19,65.198C 396.285,225.543, 405.962,224, 416,224c 53.021,0, 96,42.981, 96,96l0,32 L 512,384 L 416,384 z M 96,262
	c-31.981,0-58,26.019-58,58l0,32 l 58,0 l0-32 c0-20.093, 3.715-39.316, 10.477-57.034C 103.076,262.343, 99.578,262, 96,262z M 474,320
	c0-31.981-26.019-58-58-58c-3.578,0-7.076,0.343-10.477,0.966C 412.285,280.684, 416,299.907, 416,320l0,32 l 58,0 L 474,320 z"  />
<glyph unicode="&#xe042;" d="M 416,320l-32,0 l0,48 c0,44.183-85.961,80-192,80C 85.961,448,0,412.183,0,368l0-288 c0-44.183, 85.961-80, 192-80
	c 106.039,0, 192,35.817, 192,80l0,48 l 32,0 c 52.8,0, 96,43.2, 96,96S 468.8,320, 416,320z M 88.028,385.199C 116.999,394.744, 153.923,400, 192,400
	s 75.002-5.256, 103.972-14.801c 18.497-6.094, 29.704-12.623, 35.705-17.199c-6.001-4.576-17.208-11.104-35.705-17.199
	C 267.002,341.256, 230.077,336, 192,336s-75.001,5.256-103.972,14.801C 69.531,356.896, 58.324,363.424, 52.323,368
	C 58.324,372.576, 69.531,379.104, 88.028,385.199z M 452.182,195.818C 447.768,191.404, 438.237,184, 424,184l-40,0 l0,80 l 40,0 
	c 14.237,0, 23.768-7.405, 28.182-11.819S 464,238.237, 464,224S 456.596,200.232, 452.182,195.818z"  />
<glyph unicode="&#xe043;" d="M 432,480c-44.186,0-80-35.816-80-80l0-240 l 64,0 l0-192 l 96,0 L 512,400 C 512,444.184, 476.183,480, 432,480zM 208,480c-8.838,0-16-7.164-16-16l0-112 c0-4.418-7.164-8-16-8c-8.838,0-16,3.582-16,8L 160,464 c0,8.836-7.164,16-16,16
		c-8.837,0-16-7.164-16-16l0-112 c0-4.418-7.164-8-16-8c-8.837,0-16,3.582-16,8L 96,464 c0,8.836-7.164,16-16,16c-8.837,0-16-7.164-16-16l0-112 
		c0-4.418-7.164-8-16-8s-16,3.582-16,8L 32,464 c0,8.836-7.164,16-16,16S0,472.836,0,464l0-112 l0-32 c0-14.159, 12.529-22.055, 26.502-32
		C 44.107,275.468, 64,259.682, 64,224l0-256 l 96,0 L 160,224 c0,35.682, 19.893,51.468, 37.496,64C 211.469,297.945, 224,305.841, 224,320l0,32 L 224,464 
		C 224,472.836, 216.837,480, 208,480z"  />
<glyph unicode="&#xe044;" d="M 352,448L 192,288L 96,288 L0,160c0,0, 101.708,28.326, 161.033,15.042L0-32l 210.951,164.072C 240.37,64.745, 192-32, 192-32l 128,96
	l0,96 l 160,160L 512,480L 352,448z"  />
<glyph unicode="&#xe045;" d="M 256,448 C 397.385,448 512,333.385 512,192 C 512,95.604 458.712,11.667 379.996-32 L 132.004-32 C 53.288,11.667 0,95.604 0,192 C 0,333.385 114.615,448 256,448 Z M 400.957,47.043 C 439.676,85.763 461,137.242 461,192 L 416,192 L 416,224 L 458.519,224 C 455.012,246.499 447.824,268.073 437.237,288 L 384,288 L 384,320 L 416.142,320 C 411.423,325.881 406.366,331.548 400.957,336.957 C 377.846,360.067 350.187,376.976 320,386.856 L 320,352 L 288,352 L 288,394.52 C 277.509,396.154 266.82,397 256,397 C 245.18,397 234.491,396.155 224,394.52 L 224,352 L 192,352 L 192,386.856 C 161.814,376.976 134.154,360.068 111.043,336.957 C 105.634,331.548 100.577,325.881 95.858,320 L 128,320 L 128,288 L 74.762,288 C 64.175,268.073 56.986,246.499 53.48,224 L 96,224 L 96,192 L 51,192 C 51,137.242 72.324,85.763 111.043,47.043 C 116.398,41.688 122.005,36.679 127.823,32 L 224,32 L 242.286,288 L 269.714,288 L 288,32 L 384.177,32 C 389.995,36.679 395.603,41.689 400.957,47.043 Z"  />
<glyph unicode="&#xe046;" d="M 256,480C 114.615,480,0,365.385,0,224s 114.615-256, 256-256s 256,114.615, 256,256S 397.385,480, 256,480z M 151.418,62.924
		C 156.971,78.24, 160,94.768, 160,112c0,62.175-39.405,115.146-94.604,135.303c 5.105,42.462, 24.127,81.749, 54.839,112.462
		C 156.5,396.028, 204.715,416, 256,416s 99.5-19.972, 135.765-56.235c 30.714-30.713, 49.734-70, 54.841-112.462
		C 391.405,227.146, 352,174.175, 352,112c0-17.234, 3.030-33.76, 8.583-49.075C 329.73,42.804, 293.698,32, 256,32
		C 218.303,32, 182.271,42.804, 151.418,62.924zM 275.877,159.502 C 282.816,157.755 288,151.462 288,144 L 288,112 C 288,103.2 280.8,96 272,96 L 240,96 C 231.2,96 224,103.2 224,112 L 224,144 C 224,151.462 229.184,157.755 236.123,159.502 L 248,384 L 264,384 L 275.877,159.502 Z"  />
<glyph unicode="&#xe047;" d="M 448,352l-96,0 L 352,416 c0,17.6-14.4,32-32,32L 192,448 c-17.6,0-32-14.4-32-32l0-64 L 64,352 c-35.2,0-64-28.8-64-64l0-256 c0-35.2, 28.8-64, 64-64l 384,0 
	c 35.2,0, 64,28.8, 64,64L 512,288 C 512,323.2, 483.2,352, 448,352z M 192,416l 128,0 l0-64 L 192,352 L 192,416 z M 384,128l-96,0 l0-96 l-64,0 l0,96 l-96,0 l0,64 l 96,0 l0,96 l 64,0 l0-96 l 96,0 
	L 384,128 z"  />
<glyph unicode="&#xe048;" d="M 504.998,65.512L 354.226,216.284c-9.334,9.334-24.607,9.334-33.941,0l-11.313-11.313l-92,92L 368,448L 208,448 l-71.029-71.029
	L 129.941,384L 96,384 l0-33.941 l 7.029-7.029L0,240l 80-80l 103.029,103.029l 92-92l-11.313-11.313c-9.334-9.334-9.334-24.607,0-33.941
	l 150.772-150.772c 9.334-9.334, 24.607-9.334, 33.941,0l 56.568,56.568C 514.332,40.904, 514.332,56.178, 504.998,65.512z"  />
<glyph unicode="&#xe049;" d="M 160.504-32 C 126.381,39.004 144.553,79.689 170.779,118.022 C 199.499,160 206.901,201.555 206.901,201.555 C 206.901,201.555 229.478,172.205 220.447,126.301 C 260.333,170.701 267.859,241.441 261.838,268.533 C 351.995,205.527 390.526,69.105 338.599-32 C 614.785,124.266 407.298,358.086 371.176,384.425 C 383.217,358.087 385.5,313.5 361.176,291.862 C 320,448 218.19,480 218.19,480 C 230.231,399.478 174.542,311.428 120.842,245.635 C 118.955,277.743 116.951,299.899 100.067,330.625 C 96.277,272.297 51.701,224.751 39.63,166.311 C 23.279,87.168 51.878,29.221 160.504-32 Z"  />
<glyph unicode="&#xe04a;" d="M 478.145,77.759L 320,341.271L 320,448 l 16,0 c 8.8,0, 16,7.2, 16,16s-7.2,16-16,16L 176,480 c-8.8,0-16-7.2-16-16s 7.2-16, 16-16l 16,0 l0-106.729 
	L 33.856,77.759C-2.365,17.392, 25.6-32, 96-32l 320,0 C 486.4-32, 514.365,17.392, 478.145,77.759z M 120.519,160L 224,332.469L 224,448 l 64,0 
	l0-115.531 L 391.482,160L 120.519,160 z"  />
<glyph unicode="&#xe04b;" d="M 429.751,466.729L 427.454,480L 304,480 l 3.301-18.771c 11.173-63.55, 37.161-218.268, 37.161-282.229c0-49.075-39.684-89-88.462-89
	c-48.778,0-88.461,39.925-88.461,89c0,63.963, 25.988,218.68, 37.162,282.229L 208,480L 84.546,480 l-2.297-13.271
	C 68.711,388.518, 46,247.136, 46,179c0-116.346, 94.206-211, 210-211c 115.794,0, 210,94.654, 210,211
	C 466,247.133, 443.289,388.516, 429.751,466.729z M 256,0c-98.149,0-178,80.299-178,179c0,40.386, 8.46,108.538, 18.083,173l 58.173,0 
	c-9.997-65.617-18.717-134.028-18.717-173c0-66.72, 54.039-121, 120.461-121c 66.423,0, 120.462,54.28, 120.462,121
	c0,38.971-8.721,107.382-18.718,173l 58.173,0 C 425.54,287.537, 434,219.384, 434,179C 434,80.299, 354.149,0, 256,0z"  />
<glyph unicode="&#xe04c;" d="M 505.087,22.125L 230.77,271.854l 12.767,12.799c 10.447,10.477, 16.094,24.015, 16.959,37.805
	c 0.501,0.225, 1.001,0.456, 1.479,0.721l 51.495,32.201c 6.967,8.196, 6.458,21.134-1.142,28.751L 222.768,473.935
	c-7.595,7.617-20.499,8.131-28.672,1.142l-32.118-51.634c-0.263-0.483-0.495-0.983-0.72-1.487
	c-13.751-0.868-27.25-6.528-37.699-17.003l-48.714-48.851c-10.449-10.478-16.092-24.013-16.959-37.802
	c-0.502-0.225-1.002-0.458-1.482-0.723L 4.911,285.374c-6.971-8.195-6.458-21.132, 1.138-28.748l 89.56-89.802
	c 7.597-7.619, 20.498-8.131, 28.675-1.143l 32.114,51.635c 0.264,0.479, 0.494,0.98, 0.721,1.483c 13.751,0.869, 27.252,6.525, 37.699,17.002
	l 14.146,14.186l 249.061-275.057c 7.218-7.972, 18.35-9.259, 24.737-2.856l 25.178,25.244
	C 514.322,3.722, 513.038,14.884, 505.087,22.125z"  />
<glyph unicode="&#xe04d;" d="M 384,160.016l-91.41,91.411L 512,416.002L 447.995,480l-274.26-109.721L 87.385,456.632C 62.495,481.521, 27.734,487.485, 10.134,469.886
	C-7.465,452.287-1.5,417.523, 23.389,392.636l 86.343-86.342L0,32.003L 63.995-32L 228.59,187.434l 91.413-91.414l0-127.99 L 384-31.97 
	l 31.996,95.994l 95.994,31.998l0,63.996 L 384,160.018 L 384,160.016 z"  />
<glyph unicode="&#xe04e;" d="M 512,192l-64,128l-96,0 L 352,384 c0,17.6-14.4,32-32,32L 32,416 C 14.4,416,0,401.6,0,384l0-256 l 32-32l 40.583,0 C 67.134,86.584, 64,75.661, 64,64
	c0-35.346, 28.654-64, 64-64s 64,28.654, 64,64c0,11.661-3.134,22.584-8.583,32l 177.167,0 c-5.449-9.416-8.584-20.339-8.584-32
	c0-35.346, 28.654-64, 64-64s 64,28.654, 64,64c0,11.661-3.135,22.584-8.584,32L 512,96 L 512,192 z M 352,192l0,80 l 66.334,0 l 40-80L 352,192 z"  />
<glyph unicode="&#xe04f;" d="M 512,256l-50.462,0 C 447.718,345.12, 377.12,415.718, 288,429.538L 288,480 l-64,0 l0-50.462 C 134.88,415.718, 64.282,345.12, 50.462,256L0,256 l0-64 
	l 50.462,0 C 64.282,102.88, 134.88,32.282, 224,18.462L 224-32 l 64,0 l0,50.462 C 377.12,32.282, 447.718,102.88, 461.538,192L 512,192 L 512,256 z M 396.411,256
	L 346.53,256 c-9.642,27.275-31.255,48.889-58.53,58.53l0,49.881 C 341.757,352.166, 384.166,309.756, 396.411,256z M 256,192
	c-17.673,0-32,14.327-32,32c0,17.673, 14.327,32, 32,32c 17.673,0, 32-14.327, 32-32C 288,206.327, 273.673,192, 256,192z M 224,364.411
	l0-49.881 c-27.275-9.641-48.889-31.255-58.53-58.53l-49.881,0 C 127.834,309.756, 170.244,352.166, 224,364.411z M 115.589,192l 49.881,0 
	c 9.641-27.275, 31.255-48.889, 58.53-58.53l0-49.881 C 170.244,95.834, 127.834,138.243, 115.589,192z M 288,83.589L 288,133.47 
	c 27.275,9.642, 48.889,31.255, 58.53,58.53l 49.881,0 C 384.166,138.243, 341.757,95.834, 288,83.589z"  />
<glyph unicode="&#xe050;" d="M 480,480L 256,416L 32,480c0,0-2.25-25.849,0-64l 224-70.045L 480,416C 482.249,454.151, 480,480, 480,480zM 36.095,382.447C 48.088,257.099, 92.84,46.33, 256-32c 163.16,78.33, 207.912,289.099, 219.905,414.447L 256,299.768
		L 36.095,382.447z"  />
<glyph unicode="&#xe051;" d="M 192,480L0,224L 192,224L 64-32L 512,288L 256,288L 448,480 z"  />
<glyph unicode="&#xe052;" d="M 512,338.75L 466.747,384L 377.374,294.624L 326.624,345.375L 415.999,434.75L 370.749,480L 281.374,390.625L 224,448L 180.687,404.688L 436.688,148.687L 480,191.999L 422.624,249.375 	zM 137.374,105.373c 82.884-82.881, 192.597-18.181, 259.646,37.732L 175.108,365.017
		C 119.196,297.969, 54.494,188.256, 137.374,105.373zM 95.999,127.998L 159.996,64L 64-31.996L 0.002,32.001z"  />
<glyph unicode="&#xe053;" d="M 224,82.745L 121.373,201.372L 150.627,230.627L 224,173.255L 361.372,294.627L 390.628,265.373 	zM 415.886,416c 0.039-0.033, 0.081-0.075, 0.114-0.115l0-383.771 c-0.033-0.039-0.075-0.081-0.114-0.114L 96.114,32 
	c-0.040,0.033-0.081,0.075-0.114,0.114L 96,415.886 c 0.033,0.040, 0.075,0.081, 0.115,0.114L 32,416 l0-384 c0-35.2, 28.8-64, 64-64l 320,0 
	c 35.2,0, 64,28.8, 64,64L 480,416 L 415.886,416 z M 320,416L 320,448 c0,17.673-14.327,32-32,32l-64,0 c-17.673,0-32-14.327-32-32l0-32 l-64,0 l0-64 l 256,0 L 384,416 L 320,416 z
	 M 288,416l-64,0 L 224,448 l 64,0 L 288,416 z"  />
<glyph unicode="&#xe054;" d="M 437.020,405.019 C 485.371,356.667 512,292.379 512,223.999 C 512,155.619 485.371,91.332 437.020,42.98 C 388.667-5.371 324.38-32 256-32 C 187.62-32 123.333-5.371 74.98,42.98 C 26.629,91.332 0,155.619 0,223.999 C 0,292.379 26.627,356.667 74.98,405.019 C 123.333,453.371 187.62,480 256,480 C 324.38,480 388.667,453.371 437.020,405.019 Z M 414.392,65.607 C 445.921,97.137 466.885,136.411 475.528,179.138 C 468.791,169.22 462.347,165.541 458.356,187.741 C 454.246,223.936 421.002,200.815 400.098,213.671 C 378.096,198.842 328.645,242.502 337.049,193.259 C 350.016,171.048 407.053,222.984 378.623,175.988 C 360.486,143.18 312.302,70.522 318.57,32.859 C 319.361-22.013 262.503,21.417 242.913,39.619 C 229.735,76.079 238.422,139.806 203.964,157.662 C 166.563,159.286 134.462,162.685 119.967,204.497 C 111.244,234.411 129.249,278.944 161.306,285.819 C 208.231,315.302 224.993,251.292 269.001,250.102 C 282.665,264.399 319.909,268.945 322.997,284.977 C 294.122,290.072 359.631,309.256 320.233,320.168 C 298.498,317.612 284.494,297.631 296.049,280.689 C 253.93,270.868 252.581,341.641 212.094,319.318 C 211.065,284.023 145.983,307.875 189.576,315.032 C 204.554,321.576 165.146,340.54 186.436,337.094 C 196.894,337.662 232.102,350 222.574,358.295 C 242.179,370.465 258.654,329.15 277.843,359.236 C 291.697,382.369 272.033,386.64 254.668,374.914 C 244.878,385.876 271.953,409.552 295.834,419.783 C 303.793,423.193 311.395,425.051 317.207,424.525 C 329.236,410.629 351.482,408.222 352.646,426.196 C 322.855,440.463 290.008,448 256,448 C 207.189,448 160.765,432.488 122.346,403.805 C 132.671,399.075 138.532,393.186 128.585,385.657 C 120.857,362.63 89.5,331.719 61.973,336.095 C 47.68,311.447 38.267,284.292 34.243,255.831 C 57.299,248.203 62.615,233.106 57.661,228.056 C 45.913,217.812 38.693,203.291 34.973,187.395 C 42.478,141.477 64.059,99.157 97.608,65.607 C 139.916,23.3 196.167,0 256,0 C 315.832,0 372.084,23.3 414.392,65.607 Z"  />
<glyph unicode="&#xe055;" d="M 476.698,442.679l-2.014,2.021c-47.074,47.067-124.097,47.067-171.163,0L 194.468,335.632
		c-47.067-47.066-47.067-124.088,0-171.155l 2.013-2.013c 3.916-3.924, 8.073-7.462, 12.368-10.729l 39.924,39.925
		c-4.651,2.747-9.063,6.036-13.058,10.030l-2.021,2.021c-25.557,25.549-25.557,67.136,0,92.695L 342.758,405.462
		c 25.558,25.559, 67.137,25.559, 92.693,0l 2.021-2.012c 25.55-25.558, 25.55-67.146,0-92.695l-49.343-49.343
		c 8.566-21.154, 12.624-43.7, 12.269-66.193l 76.302,76.302C 523.767,318.589, 523.767,395.61, 476.698,442.679zM 315.521,285.533c-3.916,3.916-8.073,7.461-12.368,10.72l-39.924-39.916c 4.652-2.748, 9.063-6.037, 13.058-10.031l 2.021-2.020
		c 25.558-25.558, 25.558-67.136,0-92.694L 169.243,42.525c-25.559-25.551-67.138-25.551-92.694,0l-2.021,2.021
		c-25.549,25.56-25.549,67.138,0,92.694l 49.344,49.343c-8.567,21.153-12.623,43.701-12.269,66.193l-76.301-76.299
		c-47.068-47.066-47.068-124.089,0-171.162l 2.013-2.016c 47.076-47.064, 124.096-47.064, 171.164,0l 109.055,109.059
		c 47.067,47.066, 47.067,124.097,0,171.163L 315.521,285.533z"  />
<glyph unicode="&#xe056;" d="M 192,64L 512,64L 512,0L 192,0zM 192,256L 512,256L 512,192L 192,192zM 192,448L 512,448L 512,384L 192,384zM 96,480 L 96,352 L 64,352 L 64,448 L 32,448 L 32,480 ZM 64,217 L 64,192 L 128,192 L 128,160 L 32,160 L 32,233 L 96,263 L 96,288 L 32,288 L 32,320 L 128,320 L 128,247 ZM 128,128 L 128-32 L 32-32 L 32,0 L 96,0 L 96,32 L 32,32 L 32,64 L 96,64 L 96,96 L 32,96 L 32,128 Z"  />
<glyph unicode="&#xe057;" d="M 488,96l-8,0 L 480,200 c0,30.878-25.121,56-56,56L 288,256 l0,64 l 8,0 c 13.2,0, 24,10.8, 24,24L 320,424 c0,13.2-10.8,24-24,24l-80,0 
	c-13.2,0-24-10.8-24-24l0-80 c0-13.2, 10.8-24, 24-24l 8,0 l0-64 L 88,256 c-30.878,0-56-25.122-56-56l0-104 l-8,0 c-13.2,0-24-10.8-24-24l0-80 
	c0-13.2, 10.8-24, 24-24l 80,0 c 13.2,0, 24,10.8, 24,24l0,80 c0,13.2-10.8,24-24,24l-8,0 l0,96 l 128,0 l0-96 l-8,0 c-13.2,0-24-10.8-24-24l0-80 
	c0-13.2, 10.8-24, 24-24l 80,0 c 13.2,0, 24,10.8, 24,24l0,80 c0,13.2-10.8,24-24,24l-8,0 l0,96 l 128,0 l0-96 l-8,0 c-13.2,0-24-10.8-24-24l0-80 
	c0-13.2, 10.8-24, 24-24l 80,0 c 13.2,0, 24,10.8, 24,24l0,80 C 512,85.2, 501.2,96, 488,96z M 96,0L 32,0 l0,64 l 64,0 L 96,0 z M 288,0l-64,0 l0,64 l 64,0 L 288,0 z
	 M 224,352L 224,416 l 64,0 l0-64 L 224,352 z M 480,0l-64,0 l0,64 l 64,0 L 480,0 z"  />
<glyph unicode="&#xe058;" d="M 512,151.229c0,41.045-28.339,75.45-66.498,84.74C 443.881,300.319, 391.273,352, 326.571,352
	c-37.896,0-71.633-17.747-93.427-45.366c-12.221,15.799-31.345,25.98-52.854,25.98c-36.905,0-66.821-29.937-66.821-66.861
	c0-3.218, 0.24-6.38, 0.682-9.477c-5.611,1.012-11.383,1.569-17.285,1.569C 43.367,257.846,0,214.452,0,160.924
	C0,107.393, 43.367,64, 96.865,64l 328.131,0 l0,0.006 C 473.065,64.098, 512,103.112, 512,151.229z"  />
<glyph unicode="&#xe059;" d="M 32,384L 480,384L 480,288L 32,288zM 32,256L 480,256L 480,160L 32,160zM 32,128L 480,128L 480,32L 32,32z"  />
<glyph unicode="&#xe05a;" d="M 416,393.847 C 454.233,393.847 488.546,414.658 512,430.4 L 512,132.555 C 488.546,116.812 454.233,96 416,96 C 377.767,96 343.454,107.335 320,123.078 C 296.546,138.818 262.233,150.153 224,150.153 C 185.767,150.153 151.455,130.695 128,114.955 L 128,412.8 C 151.455,428.542 185.767,448 224,448 C 262.233,448 296.546,436.666 320,420.924 C 343.454,405.182 377.767,393.847 416,393.847 ZM 64,480 C 81.673,480 96,465.673 96,448 L 96-32 L 32-32 L 32,448 C 32,465.673 46.327,480 64,480 Z"  />
<glyph unicode="&#xe05b;" d="M 348.916,316.476l-32.476,32.461L 154.035,186.566c-26.907-26.896-26.907-70.524,0-97.422
	c 26.902-26.896, 70.53-26.896, 97.437,0l 194.886,194.854c 44.857,44.831, 44.857,117.531,0,162.363
	c-44.833,44.852-117.556,44.852-162.391,0L 79.335,241.788l 0.017-0.016c-0.145-0.152-0.306-0.288-0.438-0.423
	c-62.551-62.548-62.551-163.928,0-226.453c 62.527-62.528, 163.934-62.528, 226.494,0c 0.137,0.137, 0.258,0.284, 0.41,0.438l 0.016-0.017
	l 139.666,139.646l-32.493,32.46L 273.35,47.792l-0.008,0 c-0.148-0.134-0.282-0.285-0.423-0.422
	c-44.537-44.529-116.99-44.529-161.538,0c-44.531,44.521-44.531,116.961,0,161.489c 0.152,0.152, 0.302,0.291, 0.444,0.423l-0.023,0.030
	l 204.64,204.583c 26.856,26.869, 70.572,26.869, 97.443,0c 26.856-26.867, 26.856-70.574,0-97.42L 218.999,121.625
	c-8.968-8.961-23.527-8.961-32.486,0c-8.947,8.943-8.947,23.516,0,32.46L 348.916,316.476z"  />
<glyph unicode="&#xe05c;" d="M 256,384C 144.341,384, 47.559,318.979,0,224c 47.559-94.979, 144.341-160, 256-160c 111.657,0, 208.439,65.021, 256,160
	C 464.442,318.979, 367.657,384, 256,384z M 382.225,299.148c 30.081-19.187, 55.571-44.887, 74.717-75.148
	c-19.146-30.261-44.637-55.961-74.718-75.149C 344.427,124.743, 300.779,112, 256,112c-44.78,0-88.428,12.743-126.225,36.852
	C 99.695,168.038, 74.205,193.738, 55.058,224c 19.146,30.262, 44.637,55.962, 74.717,75.148c 1.959,1.25, 3.938,2.461, 5.929,3.65
	C 130.725,289.134, 128,274.387, 128,259c0-70.692, 57.308-128, 128-128s 128,57.308, 128,128c0,15.387-2.725,30.134-7.704,43.799
	C 378.286,301.61, 380.265,300.398, 382.225,299.148z M 256,275c0-26.51-21.49-48-48-48s-48,21.49-48,48s 21.49,48, 48,48
	S 256,301.51, 256,275z"  />
<glyph unicode="&#xe05d;" d="M 256,320C 151.316,320, 58.378,269.722,0,192c 58.378-77.723, 151.316-128, 256-128c 104.684,0, 197.622,50.277, 256,128
	C 453.622,269.722, 360.684,320, 256,320z M 224,256c 17.673,0, 32-14.327, 32-32s-14.327-32-32-32s-32,14.327-32,32S 206.327,256, 224,256z
	 M 386.808,127.352c-19.824-10.129-40.826-17.931-62.423-23.188C 302.141,98.746, 279.134,96, 256,96
	c-23.133,0-46.141,2.746-68.384,8.162c-21.597,5.259-42.599,13.061-62.423,23.188c-31.51,16.101-60.111,38.205-83.82,64.649
	c 23.709,26.444, 52.31,48.55, 83.82,64.649c 16.168,8.261, 33.121,14.973, 50.541,20.020C 165.79,261.547, 160,243.451, 160,224
	c0-53.020, 42.981-96, 96-96c 53.019,0, 96,42.98, 96,96c0,19.451-5.791,37.547-15.733,52.67c 17.419-5.048, 34.372-11.76, 50.541-20.021
	c 31.511-16.099, 60.109-38.204, 83.819-64.649C 446.917,165.557, 418.318,143.45, 386.808,127.352z M 430.459,358.139
	C 376.099,385.916, 317.403,400, 256,400c-61.403,0-120.099-14.084-174.459-41.861C 52.155,343.123, 24.675,324.187,0,302.101l0-54.603 
	c 27.669,29.283, 60.347,53.877, 96.097,72.145C 145.907,345.095, 199.706,358, 256,358s 110.093-12.905, 159.902-38.358
	c 35.751-18.268, 68.429-42.862, 96.098-72.145L 512,302.1 C 487.325,324.187, 459.846,343.123, 430.459,358.139z"  />
<glyph unicode="&#xe05e;" d="M 256,269 C 231.187,269 211,248.813 211,224 C 211,199.187 231.187,179 256,179 C 280.813,179 301,199.187 301,224 C 301,248.813 280.813,269 256,269 Z M 256,320 L 256,320 C 309.020,320 352,277.020 352,224 C 352,170.98 309.020,128 256,128 C 202.98,128 160,170.98 160,224 C 160,277.020 202.98,320 256,320 ZM 438.627,86.627 C 451.125,74.13 451.124,53.869 438.627,41.373 C 426.13,28.875 405.87,28.875 393.373,41.373 L 361.373,73.373 C 348.875,85.87 348.875,106.13 361.373,118.627 C 373.869,131.124 394.13,131.125 406.627,118.627 L 438.627,86.627 ZM 150.627,374.627 C 163.125,362.13 163.124,341.869 150.627,329.373 C 138.13,316.875 117.87,316.875 105.373,329.373 L 73.373,361.373 C 60.875,373.87 60.875,394.13 73.373,406.627 C 85.869,419.124 106.13,419.125 118.627,406.627 L 150.627,374.627 ZM 393.372,406.627 C 405.869,419.125 426.13,419.124 438.626,406.627 C 451.124,394.13 451.124,373.87 438.627,361.373 L 406.627,329.373 C 394.129,316.875 373.869,316.875 361.373,329.373 C 348.875,341.869 348.875,362.13 361.373,374.627 L 393.372,406.627 ZM 105.373,118.627 C 117.87,131.125 138.13,131.124 150.627,118.627 C 163.125,106.13 163.125,85.87 150.627,73.373 L 118.627,41.373 C 106.13,28.875 85.87,28.875 73.373,41.373 C 60.876,53.869 60.875,74.13 73.373,86.627 L 105.373,118.627 ZM 256,448 C 273.673,448 288,433.673 288,416 L 288,384 C 288,366.327 273.673,352 256,352 C 238.327,352 224,366.327 224,384 L 224,416 C 224,433.673 238.327,448 256,448 ZM 256,96 C 273.673,96 288,81.674 288,64 L 288,32 C 288,14.326 273.673,0 256,0 C 238.327,0 224,14.326 224,32 L 224,64 C 224,81.674 238.327,96 256,96 ZM 32,224 C 32,241.673 46.327,256 64,256 L 96,256 C 113.673,256 128,241.673 128,224 C 128,206.326 113.673,192 96,192 L 64,192 C 46.327,192 32,206.326 32,224 ZM 384,224 C 384,241.673 398.326,256 416,256 L 448,256 C 465.674,256 480,241.673 480,224 C 480,206.327 465.674,192 448,192 L 416,192 C 398.326,192 384,206.327 384,224 Z"  />
<glyph unicode="&#xe05f;" d="M 256,352c-70.692,0-128-57.308-128-128s 57.308-128, 128-128s 128,57.308, 128,128S 326.692,352, 256,352z M 256,144L 256,304 
		c 44.112,0, 80-35.888, 80-80S 300.112,144, 256,144zM 256,64 C 273.673,64 288,49.673 288,32 L 288,0 C 288-17.673 273.673-32 256-32 C 238.327-32 224-17.673 224,0 L 224,32 C 224,49.673 238.327,64 256,64 ZM 256,384 C 238.327,384 224,398.327 224,416 L 224,448 C 224,465.673 238.327,480 256,480 C 273.673,480 288,465.673 288,448 L 288,416 C 288,398.327 273.673,384 256,384 ZM 480,256 C 497.673,256 512,241.673 512,224 C 512,206.327 497.673,192 480,192 L 448,192 C 430.327,192 416,206.327 416,224 C 416,241.673 430.327,256 448,256 L 480,256 ZM 96,224 C 96,206.327 81.673,192 64,192 L 32,192 C 14.327,192 0,206.327 0,224 C 0,241.673 14.327,256 32,256 L 64,256 C 81.673,256 96,241.673 96,224 ZM 414.392,110.863 L 437.020,88.235 C 449.516,75.739 449.516,55.477 437.020,42.98 C 424.523,30.484 404.261,30.484 391.765,42.98 L 369.137,65.608 C 356.641,78.104 356.641,98.366 369.137,110.863 C 381.634,123.359 401.896,123.359 414.392,110.863 ZM 97.608,337.137 L 74.98,359.765 C 62.483,372.262 62.483,392.523 74.98,405.020 C 87.477,417.517 107.738,417.517 120.235,405.020 L 142.863,382.392 C 155.36,369.895 155.36,349.634 142.863,337.137 C 130.366,324.64 110.105,324.64 97.608,337.137 ZM 414.392,337.137 C 401.896,324.641 381.634,324.641 369.137,337.137 C 356.641,349.634 356.641,369.895 369.137,382.392 L 391.765,405.019 C 404.261,417.516 424.523,417.516 437.020,405.019 C 449.516,392.522 449.516,372.261 437.020,359.764 L 414.392,337.137 ZM 97.608,110.863 C 110.104,123.359 130.366,123.359 142.862,110.863 C 155.359,98.366 155.359,78.104 142.862,65.608 L 120.235,42.98 C 107.738,30.484 87.477,30.484 74.98,42.98 C 62.483,55.477 62.483,75.739 74.98,88.235 L 97.608,110.863 Z"  />
</font>
</defs>
</svg>
